Ссылка на приватное зеркало нашего сайта всего за 1$. Внимание количество ограничено!!!

2 сезон

iTunes

1 сезон

1

2 сезон

2 сезон

iTunes

1 сезон

RePack

30

Ultimate

ВАЖНО

ИГРА 18+

pack

RePack

MK11
pack

Забери бонус

RePack

jed

!!Акция!!

Alien_Rage

RePack

fifa19

RePack

Assassins Creed: Odyssey

RePack

NEED FOR SPEED™ PAYBACK

4 сезон

9 сезон

Бесстыжие 9 сезон

Все сериалы

все сериалы на PB.wtf

RePack

FAR CRY 5
  

Беглецы / Runaways / Cезон: 1 / Серии: 1-10 из 10 (Роксанн Доусон, Нина Лопес-Коррадо, Бретт Морген) [2017, Фантастика, боевик, драма, WEB-DL 1080p] MVO [LostFilm] pb.wtf

Беглецы через торрент pb.wtf

Размер: 45.96 GB | Добавлен: 2 года 10 мес. назад | Торрент скачан:22 раза
Скачать  

28-01-2018 09:38 Беглецы Скачать торрент  

Беглецы / RunawaysИнформация о фильме:

Название: Беглецы
Оригинальное название: Runaways
Год выпуска: 2017 (1 сезон)
Страна: США / ABC Studios, Disney-ABC Domestic Television, Hulu, Marvel Studios Inc., Marvel
Жанр: Фантастика, боевик, драма
Продолжительность: ~ 00:50:00 серия
Перевод: Профессиональный многоголосый - LostFilm
Субтитры: Английские
✦ Примечание: Без заставки и логотипа LostFilm!

Режиссер: Роксанн Доусон, Нина Лопес-Коррадо, Бретт Морген

rating

В ролях:

Вирджиния Гарднер, Коуди Майо, Николь Вульф, Грегг Салкин, Кевин Уайзман, Райан Дум, Кармен Серано, Аллегра Акоста, Ариэла Барер, Бриджид Брэнно

Описание:

История шести подростков, которые случайно узнают, что их родители входят в состав группы суперзлодеев под названием «Прайд». Эта группа руководит преступным миром Лос-Анджелеса. Дети узнают, что каждый из них, как и их родители, обладает какими-то способностями (а кто-то и вовсе не является человеком). Подростки решают, что не готовы принять такую судьбу, и пытаются сбежать от своих родителей.

Информация о файле:

Качество: WEB-DL 1080p
Формат: MKV
Видео кодек: H.264
Аудио кодек: AC3

Видео: ~ 12.3 Mbps, 1920x1080 (16:9), 23.976 fps
Аудио#1 RUS: AC3, 48 KHz, 6 ch, 640 kbps
Аудио#2 ENG: E-AC3, 48 KHz, 6 ch, 640 kbps


скриншот  
скриншот   скриншот   скриншот  

Общее
Уникальный идентификатор : 237049583696942485049178968836100428797 (0xB25616D2D6C51660B1B63AA60AE593FD)
Полное имя : C:\Runaways.S01.WEB-DL.1080p.Rus.Eng\Runaways.S01E01.WEB-DL.1080p.Rus.Eng.mkv
Формат : Matroska
Версия формата : Version 4 / Version 2
Размер файла : 5,04 Гбайт
Продолжительность : 53 м. 5 с.
Режим общего битрейта : Переменный
Общий поток : 13,6 Мбит/сек
Название фильма : Runaways 1x01 (2017) - Release serial_M
Дата кодирования : UTC 2017-12-26 16:21:45
Программа кодирования : mkvmerge v18.0.0 ('Apricity') 64-bit
Библиотека кодирования : libebml v1.3.5 + libmatroska v1.4.8

Видео
Идентификатор : 1
Формат : AVC
Формат/Информация : Advanced Video Codec
Профиль формата : High@L4
Параметр CABAC формата : Да
Параметр ReFrames формата : 4 кадра
Идентификатор кодека : V_MPEG4/ISO/AVC
Продолжительность : 53 м. 5 с.
Вид битрейта : Переменный
Битрейт : 12,3 Мбит/сек
Максимальный битрейт : 15,0 Мбит/сек
Ширина : 1920 пикселей
Высота : 1080 пикселей
Соотношение сторон : 16:9
Режим частоты кадров : Постоянный
Частота кадров : 23,976 (24000/1001) кадра/сек
Цветовое пространство : YUV
Субдискретизация насыщенности : 4:2:0
Битовая глубина : 8 бит
Тип развёртки : Прогрессивная
Бит/(Пиксели*Кадры) : 0.248
Размер потока : 4,57 Гбайт (91%)
Заголовок : Runaways 1x01 (2017) - Release serial_M
Язык : English
Default : Да
Forced : Нет
Цветовой диапазон : Limited
Основные цвета : BT.709
Характеристики трансфера : BT.709
Коэффициенты матрицы : BT.709

Аудио #1
Идентификатор : 2
Формат : AC-3
Формат/Информация : Audio Coding 3
Расширение режима : CM (complete main)
Параметр Endianness формата : Big
Идентификатор кодека : A_AC3
Продолжительность : 53 м. 5 с.
Вид битрейта : Постоянный
Битрейт : 640 Кбит/сек
Каналы : 6 каналов
Расположение каналов : Front: L C R, Side: L R, LFE
Частота : 48,0 КГц
Частота кадров : 31,250 кадров/сек (1536 spf)
Метод сжатия : С потерями
Размер потока : 243 Мбайт (5%)
Заголовок : LostFilm
Язык : Russian
Default : Да
Forced : Нет

Аудио #2
Идентификатор : 3
Формат : E-AC-3
Формат/Информация : Audio Coding 3
Параметр Endianness формата : Big
Идентификатор кодека : A_EAC3
Продолжительность : 53 м. 5 с.
Вид битрейта : Постоянный
Битрейт : 640 Кбит/сек
Каналы : 6 каналов
Расположение каналов : Front: L C R, Side: L R, LFE
Частота : 48,0 КГц
Частота кадров : 187,500 кадров/сек (256 spf)
Метод сжатия : С потерями
Размер потока : 243 Мбайт (5%)
Заголовок : English
Язык : English
Default : Нет
Forced : Нет

Текст
Идентификатор : 4
Формат : UTF-8
Идентификатор кодека : S_TEXT/UTF8
Идентификатор кодека/Информация : UTF-8 Plain Text
Продолжительность : 52 м. 8 с.
Битрейт : 57 бит/сек
Count of elements : 671
Размер потока : 21,9 Кбайт (0%)
Заголовок : eng-sub
Язык : English
Default : Нет
Forced : Нет

pb.wtf



Скачать Беглецы через торрент http://i6.imageban.ru/out/2017/12/01/e56c3610261a20a42a4e43880f80351d.jpg Скачать фильм Беглецы через торрент бесплантно в хорошем качестве Описание: История шести подростков, которые случайно узнают, что их родители входят в состав группы суперзлодеев под названием «Прайд». Эта ... 10 10 3
Info! Золотая раздача, скачанное не засчитывается.
Торрент: Зарегистрирован [2018-01-28 09:38] · скачан: 22 раз
Статус: √ проверено
Размер: 45.96 GB
Как cкачать? Как скачать Беглецы через торрент | qTorrent

% Раздел Тема Автор DL S | L
Зарубежные сериалы [ 44.3 GB ] Беглецы / Runaways / Cезон: 1 / Серии: 1-10 из 10 [2017 WEB-DL 1080p] MVO [Кириллица] bober100 Скачать
1 | 0
Зарубежные сериалы [ 20.55 GB ] Беглецы / Runaways / Cезон: 1 / Серии: 1-10 из 10 [2017 WEBRip 1080p] MVO [NewStudio] bober100 Скачать
1 | 0
Зарубежные сериалы [ 6.63 GB ] Беглецы / Runaways / Cезон: 1 / Серии: 1-10 из 10 [2017 WEBRip] MVO [BaibaKo] bober100 Скачать
1 | 0
Зарубежные сериалы [ 20.99 GB ] Беглецы / Runaways / Cезон: 1 / Серии: 1-10 из 10 [2017 WEB-DL 1080p] MVO [Jaskier] bober100 Скачать
1 | 0
Зарубежные сериалы [ 5.66 GB ] Беглецы / Runaways / Cезон: 1 / Серии: 1-10 из 10 [2017 WEB-DLRip] MVO [NewStudio] bober100 Скачать
1 | 0
Зарубежные сериалы [ 5.89 GB ] Беглецы / Runaways / Cезон: 1 / Серии: 1-10 из 10 [2017 WEB-DLRip] MVO [Jaskier] bober100 Скачать
1 | 0

28-11-2019 20:33  

Отключить всю рекламу на сайте

    Дорогой пользователь! Огромная просьба, поблагодарите релизера, оцените раздачу и оставьте свои комментарий, если Вы скачали Беглецы через торрент бесплатно! Внесите свою лепту в развитие PiratBit!
    Комментировать посты могут только пользователи прошедшие не сложную регистрацию
    Показать сообщения:    

    Беглецы через торрент
    Скачать бесплатно Беглецы
    Беглецы скачать торрент
    Беглецы смотреть онлайн
    Cкачать фильм Беглецы бесплатно
    Беглецы скачать торрент в хорошем качестве
    Беглецы смотреть онлайн бесплатно в хорошем качестве


    Вы не можете начинать темы
    Вы не можете отвечать на сообщения
    Вы не можете редактировать свои сообщения
    Вы не можете удалять свои сообщения
    Вы не можете голосовать в опросах
    Вы не можете прикреплять файлы к сообщениям
    Вы можете скачивать файлы