Ссылка на приватное зеркало нашего сайта всего за 1$. Внимание количество ограничено!!!

2 сезон

iTunes

1 сезон

1

2 сезон

2 сезон

iTunes

1 сезон

RePack

30

Ultimate

ВАЖНО

ИГРА 18+

pack

RePack

MK11
pack

Забери бонус

RePack

jed

!!Акция!!

Alien_Rage

RePack

fifa19

RePack

Assassins Creed: Odyssey

RePack

NEED FOR SPEED™ PAYBACK

4 сезон

9 сезон

Бесстыжие 9 сезон

Все сериалы

все сериалы на PB.wtf

RePack

FAR CRY 5
  

Алиенист / The Alienist / Сезон 1 / Серия 1-10 из 10 (Пако Кабесас, Джеймс Хоуз, Джэми Пэйн) [2018, драма, детектив, WEB-DLRip] [MVO] (Good People) pb.wtf

Алиенист через торрент pb.wtf

Раздают: 1 [ 0 KB/s ]
Размер: 5.89 GB | Добавлен: 9 мес. назад | Торрент скачан:30 раз
Скачать  

28-01-2018 10:50 Алиенист Скачать торрент  

Алиенист | The Alienist • Год выпуска: 2018
• Страна: США
• Жанр: драма, детектив
• Продолжительность: ~ 00:50:00
• Перевод: Профессиональный (многоголосый закадровый) | Good People

• Режиссёр: Пако Кабесас, Джеймс Хоуз, Джэми Пэйн

• В ролях: Даниэль Брюль, Дакота Фэннинг, Люк Эванс, Мэттью Линтц, Мартин МакКриди, Мэттью Шир, Дуглас Смит, Дэвид Уилмот, К`Орианка Килчер, Тед Левайн и др.

• Описание: В конце XIX века, в 1896 году, Нью-Йорк потрясает серия жестоких убийств: в городских трущобах убивают детей, с каждым разом все более и более изощренно — будто исполняется какой-то кровавый ритуал. Расследование ведет яркая команда: будущий президент, а пока комиссар полиции Теодор Рузвельт, выдающийся психолог-алиенист (изучает умственные патологии) Ласло Крайцлер и репортер уголовной хроники Джон Скайлер Мур.



• Качество: WEB-DLRip
• Формат: AVI
• Видео: XviD, ~ 1400 kbps, 720x400 (16:9), 23.976 fps
• Аудио 1: MP3, 48,0 КГц, 2 ch, 128 kbps - Rus
• Аудио 2: MP3, 48,0 КГц, 2 ch, 128 kbps - Eng
• Субтитры: отсутствуют
Общее
Полное имя                               : E:\GoodPeople\The Alienist. Season 1 (WEB-DLRip l 400p l Good People)\The.Alienist.S01E01.WEB-DLRip.Rus.Eng.GoodPeople.avi
Формат                                   : AVI
Формат/Информация                        : Audio Video Interleave
Размер файла                             : 623 Мбайт
Продолжительность                        : 48 м. 15 с.
Общий поток                              : 1805 Кбит/сек
Программа кодирования                    : VirtualDubMod 1.5.10.3 | www.virtualdub-fr.org || (build 2550/release)
Библиотека кодирования                   : VirtualDubMod build 2550/release

Видео
Идентификатор                            : 0
Формат                                   : MPEG-4 Visual
Профиль формата                          : Advanced Simple@L5
Настройки формата                        : BVOP1 / Custom Matrix
Параметр BVOP формата                    : 1
Параметр QPel формата                    : Нет
Параметр GMC формата                     : Без точки перехода
Параметр матрицы формата                 : Выборочная
Идентификатор кодека                     : XVID
Идентификатор кодека/Подсказка           : XviD
Продолжительность                        : 48 м. 15 с.
Битрейт                                  : 1535 Кбит/сек
Ширина                                   : 720 пикселей
Высота                                   : 400 пикселей
Соотношение сторон                       : 16:9
Частота кадров                           : 23,976 (24000/1001) кадра/сек
Цветовое пространство                    : YUV
Субдискретизация насыщенности            : 4:2:0
Битовая глубина                          : 8 бит
Тип развёртки                            : Прогрессивная
Метод сжатия                             : С потерями
Бит/(Пиксели*Кадры)                      : 0.222
Размер потока                            : 530 Мбайт (85%)
Библиотека кодирования                   : XviD 73

Аудио #1
Идентификатор                            : 1
Формат                                   : MPEG Audio
Версия формата                           : Version 1
Профиль формата                          : Layer 3
Настройки формата                        : Joint stereo / MS Stereo
Идентификатор кодека                     : 55
Идентификатор кодека/Подсказка           : MP3
Продолжительность                        : 48 м. 15 с.
Вид битрейта                             : Постоянный
Битрейт                                  : 128 Кбит/сек
Каналы                                   : 2 канала
Частота                                  : 48,0 КГц
Метод сжатия                             : С потерями
Размер потока                            : 44,2 Мбайт (7%)
Выравнивание                             : Соединение по промежуткам
Продолжительность промежутка             : 42  мс. (1,00 видеокадр)
Время предзагрузки промежутка            : 504  мс.

Аудио #2
Идентификатор                            : 2
Формат                                   : MPEG Audio
Версия формата                           : Version 1
Профиль формата                          : Layer 3
Настройки формата                        : Joint stereo
Идентификатор кодека                     : 55
Идентификатор кодека/Подсказка           : MP3
Продолжительность                        : 48 м. 15 с.
Вид битрейта                             : Постоянный
Битрейт                                  : 128 Кбит/сек
Каналы                                   : 2 канала
Частота                                  : 48,0 КГц
Метод сжатия                             : С потерями
Размер потока                            : 44,2 Мбайт (7%)
Выравнивание                             : Соединение по промежуткам
Продолжительность промежутка             : 42  мс. (1,00 видеокадр)
Время предзагрузки промежутка            : 504  мс.
скриншот  скриншот  скриншот  
Когда раздача ведётся путём добавления новых серий, при каждом добавлении создётся новый торрент. Чтобы начать докачку новой серии, пользователям необходимо сделать следующее:
(1) остановить скачивание,
(2) удалить старый торрент у себя из клиента (старые серии удалять не надо),
(3) скачать новый торрент и запустить его у себя в клиенте вместо старого, при этом указать клиенту путь в старую папку, куда и должно происходить скачивание новых серий.
Ваш клиент при этом должен произвести хеширование (проверку) старой папки (если не производит сам - помогите ему сделать это), и будет докачивать только те серии, которых у вас ещё нет. Старые серии при этом не удаляются, а продолжают раздаваться!
Eсли вы уже удалили старые серии, то предотвратить повторную закачку старых серий можно, отжав галочку в соответсвующих местах при запуске нового торрента. По возможности, желательно не удалять старые серии как можно дольше, чтобы релизёр не столько продолжал раздавать старые серии, а смог сконцентрироваться на новых.
pb.wtf



Скачать Алиенист через торрент http://i102.fastpic.ru/big/2018/0126/f9/9a30565bdb88178d3384ce092a07c4f9.jpg Скачать фильм Алиенист через торрент бесплантно в хорошем качестве Описание: В конце XIX века, в 1896 году, Нью-Йорк потрясает серия жестоких убийств: в городских трущобах убивают детей, с каждым разом все ... 6.4 10 5
Торрент: Зарегистрирован [2020-02-05 13:32] · скачан: 30 раз
Статус: √ проверено
Размер: 5.89 GB
Как cкачать? Как скачать Алиенист через торрент | qTorrent

% Раздел Тема Автор DL S | L
Зарубежные сериалы [ 29.1 GB ] Алиенист / The Alienist / Сезон 2 / Серия 1-8 из 8 [2020 WEB-DL 1080p] 5x[MVO] killermax2013 Скачать
1 | 0
Зарубежные сериалы [ 28.23 GB ] Алиенист / The Alienist / Сезон: 2 / Серии: 1-8 из 8 [2020 WEB-DL 1080p] 3xMVO [AlexFilm LostFilm NewStudio] bober100 Скачать
1 | 0
Зарубежные сериалы [ 25.44 GB ] Алиенист / The Alienist / Сезон: 2 / Серии: 1-8 из 8 [2020 WEB-DL 1080p] MVO [AlexFilm] bober100 Скачать
1 | 0
Зарубежные сериалы [ 24.74 GB ] Алиенист / The Alienist / Сезон: 2 / Серии: 1-8 из 8 [2020 WEB-DL 1080p] MVO [Jaskier] bober100 Скачать
2 | 0
Зарубежные сериалы [ 24.07 GB ] Алиенист / The Alienist/ Сезон: 1 / Серии: 1-10 из 10 [2018 WEBRip 1080p] MVO [TVShows] bober100 Скачать
1 | 0
Зарубежные сериалы [ 19.12 GB ] Алиенист / The Alienist / Сезон: 1 / Серии: 1-10 из 10 [2018 WEB-DL 1080p] MVO [NewStudio] bober100 Скачать
1 | 0
Зарубежные сериалы [ 8.73 GB ] Алиенист / The Alienist / Сезон: 1 / Серии: 1-10 из 10 [2018 WEB-DLRip] MVO [LostFilm] bober100 Скачать
1 | 0


Последний раз редактировалось: killermax2013 (2020-02-05 13:32), всего редактировалось 3 раз(а)

28-11-2019 20:33  

Отключить всю рекламу на сайте

    Дорогой пользователь! Огромная просьба, поблагодарите релизера, оцените раздачу и оставьте свои комментарий, если Вы скачали Алиенист через торрент бесплатно! Внесите свою лепту в развитие PiratBit!
    Комментировать посты могут только пользователи прошедшие не сложную регистрацию
    Показать сообщения:    

    Алиенист через торрент
    Скачать бесплатно Алиенист
    Алиенист скачать торрент
    Алиенист смотреть онлайн
    Cкачать фильм Алиенист бесплатно
    Алиенист скачать торрент в хорошем качестве
    Алиенист смотреть онлайн бесплатно в хорошем качестве


    Вы не можете начинать темы
    Вы не можете отвечать на сообщения
    Вы не можете редактировать свои сообщения
    Вы не можете удалять свои сообщения
    Вы не можете голосовать в опросах
    Вы не можете прикреплять файлы к сообщениям
    Вы можете скачивать файлы