Ссылка на приватное зеркало нашего сайта всего за 1$. Внимание количество ограничено!!!

2 сезон

iTunes

1 сезон

1

2 сезон

2 сезон

iTunes

1 сезон

RePack

30

Ultimate

ВАЖНО

ИГРА 18+

pack

RePack

MK11
pack

Забери бонус

RePack

jed

!!Акция!!

Alien_Rage

RePack

fifa19

RePack

Assassins Creed: Odyssey

RePack

NEED FOR SPEED™ PAYBACK

4 сезон

9 сезон

Бесстыжие 9 сезон

Все сериалы

все сериалы на PB.wtf

RePack

FAR CRY 5
  

Девушка по вызову / The Girlfriend Experience / Сезон: 2 / Серии: 1-14 из 14 (Лодж Х. Керриган, Эми Саймец) [2017, драма, WEBRip 1080p] MVO [NewStudio] pb.wtf

Девушка по вызову через торрент pb.wtf

Размер: 18.3 GB | Добавлен: 2 года 10 мес. назад | Торрент скачан:34 раза
Скачать  

28-01-2018 10:59 Девушка по вызову Скачать торрент  

Девушка по вызову / The Girlfriend Experience Информация о фильме:

Название: Девушка по вызову
Оригинальное название: The Girlfriend Experience
Год выпуска: 2017 (2 сезон)
Страна: США / Transactional Pictures
Жанр: драма
Продолжительность: ~ 00:30:00 серия
Перевод: Профессиональный многоголосый -
Субтитры: отсутствуют
✦ Примечание: Без рекламы!

Режиссер: Лодж Х. Керриган, Эми Саймец

rating

В ролях:

Райли Кио, Пол Спаркс, Мэри Линн Райскаб, Сабрин Рок, Кейт Хьюлетт, Дженни Рэйвен, Оливия Паленстейн, Джефф Кларк, Кейт Лин Шейл и др.

Описание:

Студентка юридического факультета Кристин погружается в новый для нее мир эскорта исключительно из прагматических соображений. Но она оказывается не готова к трудностям, которые выпадают на долю тех, кто ведет двойную жизнь.

Информация о файле:

Качество: WEBRip 1080p
Формат: MKV
Видео кодек: H.264
Аудио кодек: AC3

Видео: ~ 5500 kbps, 1920x1080 (16:9), 23.976 fps
Аудио#1 RUS: AC3, 48 KHz, 6 ch, 384 kbps
Аудио#2 ENG: AC3, 48 KHz, 6 ch, 640 kbps

скриншот   скриншот   скриншот   скриншот  

Общее
Уникальный идентификатор : 170928470101093102107311121790883118096 (0x8097A03A6E8E11868ECA68D90304BC10)
Полное имя : C:\Users\Бобер\Desktop\The.Girlfriend.Experience.s02.WEBRip.1080p.NewStudio.Wanterlude\The.Girlfriend.Experience.s02e01.WEBRip.1080p.NewStudio.Wanterlude.mkv
Формат : Matroska
Версия формата : Version 4 / Version 2
Размер файла : 1,15 Гбайт
Продолжительность : 25 м. 15 с.
Режим общего битрейта : Переменный
Общий поток : 6518 Кбит/сек
Название фильма : The Girlfriend Experience | Ep 01 | NewStudio
Дата кодирования : UTC 2017-11-29 22:08:40
Программа кодирования : mkvmerge v17.0.0 ('Be Ur Friend') 64-bit
Библиотека кодирования : libebml v1.3.5 + libmatroska v1.4.8

Видео
Идентификатор : 1
Формат : AVC
Формат/Информация : Advanced Video Codec
Профиль формата : High@L4
Параметр CABAC формата : Да
Параметр ReFrames формата : 4 кадра
Идентификатор кодека : V_MPEG4/ISO/AVC
Продолжительность : 25 м. 15 с.
Вид битрейта : Переменный
Битрейт : 5491 Кбит/сек
Максимальный битрейт : 15,0 Мбит/сек
Ширина : 1920 пикселей
Высота : 1080 пикселей
Соотношение сторон : 16:9
Режим частоты кадров : Постоянный
Частота кадров : 23,976 (24000/1001) кадра/сек
Цветовое пространство : YUV
Субдискретизация насыщенности : 4:2:0
Битовая глубина : 8 бит
Тип развёртки : Прогрессивная
Бит/(Пиксели*Кадры) : 0.110
Размер потока : 992 Мбайт (84%)
Заголовок : The Girlfriend Experience | Ep 01 | NewStudio
Default : Да
Forced : Нет
Цветовой диапазон : Limited
Основные цвета : BT.709
Характеристики трансфера : BT.709
Коэффициенты матрицы : BT.709

Аудио #1
Идентификатор : 2
Формат : AC-3
Формат/Информация : Audio Coding 3
Расширение режима : CM (complete main)
Параметр Endianness формата : Big
Идентификатор кодека : A_AC3
Продолжительность : 25 м. 15 с.
Вид битрейта : Постоянный
Битрейт : 384 Кбит/сек
Каналы : 6 каналов
Расположение каналов : Front: L C R, Side: L R, LFE
Частота : 48,0 КГц
Частота кадров : 31,250 кадров/сек (1536 spf)
Метод сжатия : С потерями
Размер потока : 69,4 Мбайт (6%)
Заголовок : NewStudio | Wanterlude
Язык : Russian
Default : Да
Forced : Нет

Аудио #2
Идентификатор : 3
Формат : E-AC-3
Формат/Информация : Audio Coding 3
Параметр Endianness формата : Big
Идентификатор кодека : A_EAC3
Продолжительность : 25 м. 15 с.
Вид битрейта : Постоянный
Битрейт : 640 Кбит/сек
Каналы : 6 каналов
Расположение каналов : Front: L C R, Side: L R, LFE
Частота : 48,0 КГц
Частота кадров : 187,500 кадров/сек (256 spf)
Метод сжатия : С потерями
Размер потока : 116 Мбайт (10%)
Язык : English
Default : Нет
Forced : Нет

pb.wtf



Скачать Девушка по вызову через торрент http://i95.fastpic.ru/big/2017/1031/7c/61d23706d00a51b037700c26ad5bbb7c.png Скачать фильм Девушка по вызову через торрент бесплантно в хорошем качестве Описание: Студентка юридического факультета Кристин погружается в новый для нее мир эскорта исключительно из прагматических соображений. Но ... 10 10 3
Info! Золотая раздача, скачанное не засчитывается.
Торрент: Зарегистрирован [2018-01-28 10:59] · скачан: 34 раз
Статус: √ проверено
Размер: 18.3 GB
Как cкачать? Как скачать Девушка по вызову через торрент | qTorrent

% Раздел Тема Автор DL S | L
Зарубежные сериалы [ 5.09 GB ] Девушка по вызову / The Girlfriend Experience / Сезон: 2 / Серии: 1-14 из 14 [2017 WEB-DLRip] MVO [NewStudio] bober100 Скачать
1 | 0
Зарубежные сериалы [ 7.57 GB ] Девушка по вызову / The Girlfriend Experience / Сезон: 2 / Серии 1-14 из 14 [2017 WEB-DL 720p) [NewStudio] GEKADOL Скачать
1 | 0

28-11-2019 20:33  

Отключить всю рекламу на сайте

    Дорогой пользователь! Огромная просьба, поблагодарите релизера, оцените раздачу и оставьте свои комментарий, если Вы скачали Девушка по вызову через торрент бесплатно! Внесите свою лепту в развитие PiratBit!
    Комментировать посты могут только пользователи прошедшие не сложную регистрацию
    Показать сообщения:    

    Девушка по вызову через торрент
    Скачать бесплатно Девушка по вызову
    Девушка по вызову скачать торрент
    Девушка по вызову смотреть онлайн
    Cкачать фильм Девушка по вызову бесплатно
    Девушка по вызову скачать торрент в хорошем качестве
    Девушка по вызову смотреть онлайн бесплатно в хорошем качестве


    Вы не можете начинать темы
    Вы не можете отвечать на сообщения
    Вы не можете редактировать свои сообщения
    Вы не можете удалять свои сообщения
    Вы не можете голосовать в опросах
    Вы не можете прикреплять файлы к сообщениям
    Вы можете скачивать файлы