Ссылка на приватное зеркало всего за 1$. Внимание количество ограничено!!!

OK

1+1

iTunes

мы

OK

1

WEB-DLRip

Джокер

Пифагор

Ведьмак / The Witcher сериал

iTunes

ПШазам

ОК

Оно 2

iTunes

30
pack

Вам бонус

ВАЖНО

!!Акция!!

Alien_RageХит недели

RePack

Resident Evil 21

ИГРА 18+

pack

RePack

jed

RePack

fifa19

RePack

Assassins Creed: Odyssey

RePack

NEED FOR SPEED™ PAYBACK

4 сезон

9 сезон

Бесстыжие 9 сезон

Все сериалы

все сериалы на PB.wtf

RePack

FAR CRY 5
  

Добро пожаловать на Юг 2, или Соседям вход воспрещен / Non c'è più religione (Лука Миньеро) [2016, комедия, HDRip] MVO [КОЛОБОК] pb.wtf

Добро пожаловать на Юг 2, или Соседям вход воспрещен через торрент pb.wtf

Размер: 1.37 GB | Добавлен: 1 год 11 мес. назад | Торрент скачан:62 раза
Скачать  

28-01-2018 11:22 Добро пожаловать на Юг 2, или Соседям вход воспрещен Скачать торрент  

Добро пожаловать на Юг 2, или Соседям вход воспрещен / Non c'è più religione Год выпуска: 2016
Страна: Италия
Жанр: комедия
Продолжительность: 01:24:21
Перевод: Любительский (многоголосый) - [КОЛОБОК]
Субтитры: отсутствуют

Режиссер: Лука Миньеро

rating

В ролях:

Клаудио Бизио, Алессандро Гассман, Анджела Финоккьяро, Набиха Аккари, Мехди Мескар, Лаура Адриани, Джованни Качоппо, Массимо Де Лоренцо, Джованни Эспозито, Роберто Херлицка

Описание:

В процессе подготовки к празднованию Рождества обитатели маленького итальянского острова посреди Средиземного моря сталкиваются с серьезной проблемой. На острове уже много лет не рождались дети, поэтому некому сыграть роль младенца Христа в обязательной постановке с поклонением волхвов, а мальчик, который играл эту роль раньше, уже непозволительно большой. Есть, разумеется, вариант - «одолжить» младенца у тунисской диаспоры, но они - мусульмане, поэтому эта идея видится многим не совсем каноничной. И тунисцам, и итальянцам. Когда обсуждение заходит в тупик, монахиня Марта и глава тунисской диаспоры Билал (в прошлом - принявший ислам итальянец) решают взять дипломатические переговоры на себя.

Качество: HDRip
Формат: AVI

Видео: XviD, 1626 Кбит/с, 720x304
Аудио#1: AC3, 2 ch, 448 Кбит/с

скриншот   скриншот   скриншот  

Общее
Полное имя : D:\Non.ce.piu.religione.2016.P.HDRip.14OOMB.avi
Формат : AVI
Формат/Информация : Audio Video Interleave
Размер файла : 1,37 Гбайт
Продолжительность : 1 ч. 33 м.
Общий поток : 2083 Кбит/сек
Программа кодирования : VirtualDubMod 1.5.10.2 (build 2540/release)
Библиотека кодирования : VirtualDubMod build 2540/release

Видео
Идентификатор : 0
Формат : MPEG-4 Visual
Профиль формата : Advanced Simple@L5
Параметр BVOP формата : 2
Параметр QPel формата : Нет
Параметр GMC формата : Без точки перехода
Параметр матрицы формата : Default (MPEG)
Идентификатор кодека : XVID
Идентификатор кодека/Подсказка : XviD
Продолжительность : 1 ч. 33 м.
Битрейт : 1626 Кбит/сек
Ширина : 720 пикселей
Высота : 304 пикселя
Соотношение сторон : 2,35:1
Частота кадров : 23,976 (24000/1001) кадра/сек
Цветовое пространство : YUV
Субдискретизация насыщенности : 4:2:0
Битовая глубина : 8 бит
Тип развёртки : Прогрессивная
Метод сжатия : С потерями
Бит/(Пиксели*Кадры) : 0.310
Размер потока : 1,07 Гбайт (78%)
Библиотека кодирования : XviD 1.2.1 (UTC 2008-12-04)

Аудио
Идентификатор : 1
Формат : AC-3
Формат/Информация : Audio Coding 3
Расширение режима : CM (complete main)
Параметр Endianness формата : Big
Идентификатор кодека : 2000
Продолжительность : 1 ч. 33 м.
Вид битрейта : Постоянный
Битрейт : 448 Кбит/сек
Каналы : 2 канала
Расположение каналов : Front: L R
Частота : 48,0 КГц
Частота кадров : 31,250 кадров/сек (1536 spf)
Метод сжатия : С потерями
Размер потока : 301 Мбайт (22%)
Выравнивание : Разделение по промежуткам
Продолжительность промежутка : 42 мс. (1,00 видеокадр)
Время предзагрузки промежутка : 500 мс.

pb.wtf



Скачать Добро пожаловать на Юг 2, или Соседям вход воспрещен через торрент http://i100.fastpic.ru/big/2018/0115/1f/07f1bd020ea451f65e73023d3c30e31f.jpg Скачать фильм Добро пожаловать на Юг 2, или Соседям вход воспрещен через торрент бесплантно в хорошем качестве Описание: В процессе подготовки к празднованию Рождества обитатели маленького итальянского острова посреди Средиземного моря сталкиваются с ... 6.4 10 5
Торрент: Зарегистрирован [2018-01-28 11:22] · скачан: 62 раз
Статус: T временная
Размер: 1.37 GB
Как cкачать? Как скачать Добро пожаловать на Юг 2, или Соседям вход воспрещен через торрент | qTorrent

28-11-2019 20:33  

Отключить всю рекламу на сайте

    Дорогой пользователь! Огромная просьба, поблагодарите релизера, оцените раздачу и оставьте свои комментарий, если Вы скачали Добро пожаловать на Юг 2, или Соседям вход воспрещен через торрент бесплатно! Внесите свою лепту в развитие PiratBit!
    Комментировать посты могут только пользователи прошедшие не сложную регистрацию
    Показать сообщения:    

    Добро пожаловать на Юг 2, или Соседям вход воспрещен через торрент
    Скачать бесплатно Добро пожаловать на Юг 2, или Соседям вход воспрещен
    Добро пожаловать на Юг 2, или Соседям вход воспрещен скачать торрент
    Добро пожаловать на Юг 2, или Соседям вход воспрещен смотреть онлайн
    Cкачать фильм Добро пожаловать на Юг 2, или Соседям вход воспрещен бесплатно
    Добро пожаловать на Юг 2, или Соседям вход воспрещен скачать торрент в хорошем качестве
    Добро пожаловать на Юг 2, или Соседям вход воспрещен смотреть онлайн бесплатно в хорошем качестве


    Вы не можете начинать темы
    Вы не можете отвечать на сообщения
    Вы не можете редактировать свои сообщения
    Вы не можете удалять свои сообщения
    Вы не можете голосовать в опросах
    Вы не можете прикреплять файлы к сообщениям
    Вы можете скачивать файлы