Ссылка на приватное зеркало всего за 1$. Внимание количество ограничено!!!

OK

1+1

iTunes

мы

OK

1

WEB-DLRip

Джокер

Пифагор

Ведьмак / The Witcher сериал

Лицензия

ПШазам

ОК

Оно 2

iTunes

30
pack

Вам бонус

ВАЖНО

!!Акция!!

Alien_RageХит недели

RePack

Resident Evil 21

ИГРА 18+

pack

RePack

jed

!!Акция!!

Alien_Rage

RePack

fifa19

RePack

Assassins Creed: Odyssey

RePack

NEED FOR SPEED™ PAYBACK

4 сезон

9 сезон

Бесстыжие 9 сезон

Все сериалы

все сериалы на PB.wtf

RePack

FAR CRY 5
  

Добро пожаловать на Юг 2, или Соседям вход воспрещен / Non c'è più religione (Лука Миньеро) [2016, комедия, BDRip 720p] MVO [КОЛОБОК] pb.wtf

Добро пожаловать на Юг 2, или Соседям вход воспрещен через торрент pb.wtf

Размер: 4.27 GB | Добавлен: 1 год 11 мес. назад | Торрент скачан:50 раз
Скачать  

28-01-2018 11:26 Добро пожаловать на Юг 2, или Соседям вход воспрещен Скачать торрент  

Добро пожаловать на Юг 2, или Соседям вход воспрещен / Non c'è più religione Год выпуска: 2016
Страна: Италия
Жанр: комедия
Продолжительность: 01:24:21
Перевод: Любительский (многоголосый) - [КОЛОБОК]
Субтитры: отсутствуют

Режиссер: Лука Миньеро

rating

В ролях:

Клаудио Бизио, Алессандро Гассман, Анджела Финоккьяро, Набиха Аккари, Мехди Мескар, Лаура Адриани, Джованни Качоппо, Массимо Де Лоренцо, Джованни Эспозито, Роберто Херлицка

Описание:

В процессе подготовки к празднованию Рождества обитатели маленького итальянского острова посреди Средиземного моря сталкиваются с серьезной проблемой. На острове уже много лет не рождались дети, поэтому некому сыграть роль младенца Христа в обязательной постановке с поклонением волхвов, а мальчик, который играл эту роль раньше, уже непозволительно большой. Есть, разумеется, вариант - «одолжить» младенца у тунисской диаспоры, но они - мусульмане, поэтому эта идея видится многим не совсем каноничной. И тунисцам, и итальянцам. Когда обсуждение заходит в тупик, монахиня Марта и глава тунисской диаспоры Билал (в прошлом - принявший ислам итальянец) решают взять дипломатические переговоры на себя.

Качество: BDRip 720p
Формат: MKV
Видео кодек: H.264
Аудио кодек: AC3

Видео: 6064 Kбит/с, 1280x536
Аудио#1: Русский, (AC3, 2 ch, 448 Кбит/с)

скриншот  скриншот  скриншот  

Общее
Уникальный идентификатор : 181528736993465788337765358414103584493 (0x889129BC9CD87C73AE0D654626A41EED)
Полное имя : D:\Non.ce.piu.religione.2016.P.BDRip.72Op.mkv
Формат : Matroska
Версия формата : Version 2
Размер файла : 4,27 Гбайт
Продолжительность : 1 ч. 33 м.
Режим общего битрейта : Переменный
Общий поток : 6514 Кбит/сек
Дата кодирования : UTC 2018-01-27 20:03:30
Программа кодирования : mkvmerge v8.3.0 ('Over the Horizon') 64bit
Библиотека кодирования : libebml v1.3.1 + libmatroska v1.4.2

Видео
Идентификатор : 1
Формат : AVC
Формат/Информация : Advanced Video Codec
Профиль формата : High@L4.1
Параметр CABAC формата : Да
Параметр ReFrames формата : 4 кадра
Идентификатор кодека : V_MPEG4/ISO/AVC
Продолжительность : 1 ч. 33 м.
Вид битрейта : Переменный
Битрейт : 6064 Кбит/сек
Максимальный битрейт : 6500 Кбит/сек
Ширина : 1280 пикселей
Высота : 536 пикселей
Соотношение сторон : 2,40:1
Режим частоты кадров : Постоянный
Частота кадров : 23,976 (24000/1001) кадра/сек
Стандарт вещания : Component
Цветовое пространство : YUV
Субдискретизация насыщенности : 4:2:0
Битовая глубина : 8 бит
Тип развёртки : Прогрессивная
Бит/(Пиксели*Кадры) : 0.361
Размер потока : 3,90 Гбайт (91%)
Default : Да
Forced : Нет
Цветовой диапазон : Limited
Основные цвета : BT.709
Характеристики трансфера : BT.709
Коэффициенты матрицы : BT.709

Аудио
Идентификатор : 2
Формат : AC-3
Формат/Информация : Audio Coding 3
Расширение режима : CM (complete main)
Параметр Endianness формата : Big
Идентификатор кодека : A_AC3
Продолжительность : 1 ч. 33 м.
Вид битрейта : Постоянный
Битрейт : 448 Кбит/сек
Каналы : 2 канала
Расположение каналов : Front: L R
Частота : 48,0 КГц
Частота кадров : 31,250 кадров/сек (1536 spf)
Метод сжатия : С потерями
Размер потока : 301 Мбайт (7%)
Default : Да
Forced : Нет

pb.wtf



Скачать Добро пожаловать на Юг 2, или Соседям вход воспрещен через торрент http://i100.fastpic.ru/big/2018/0115/1f/07f1bd020ea451f65e73023d3c30e31f.jpg Скачать фильм Добро пожаловать на Юг 2, или Соседям вход воспрещен через торрент бесплантно в хорошем качестве Описание: В процессе подготовки к празднованию Рождества обитатели маленького итальянского острова посреди Средиземного моря сталкиваются с ... 10 10 4
Торрент: Зарегистрирован [2018-01-28 11:26] · скачан: 50 раз
Статус: # сомнительно
Размер: 4.27 GB
Как cкачать? Как скачать Добро пожаловать на Юг 2, или Соседям вход воспрещен через торрент | qTorrent

28-11-2019 20:33  

Отключить всю рекламу на сайте

    Дорогой пользователь! Огромная просьба, поблагодарите релизера, оцените раздачу и оставьте свои комментарий, если Вы скачали Добро пожаловать на Юг 2, или Соседям вход воспрещен через торрент бесплатно! Внесите свою лепту в развитие PiratBit!
    Комментировать посты могут только пользователи прошедшие не сложную регистрацию
    Показать сообщения:    

    Добро пожаловать на Юг 2, или Соседям вход воспрещен через торрент
    Скачать бесплатно Добро пожаловать на Юг 2, или Соседям вход воспрещен
    Добро пожаловать на Юг 2, или Соседям вход воспрещен скачать торрент
    Добро пожаловать на Юг 2, или Соседям вход воспрещен смотреть онлайн
    Cкачать фильм Добро пожаловать на Юг 2, или Соседям вход воспрещен бесплатно
    Добро пожаловать на Юг 2, или Соседям вход воспрещен скачать торрент в хорошем качестве
    Добро пожаловать на Юг 2, или Соседям вход воспрещен смотреть онлайн бесплатно в хорошем качестве


    Вы не можете начинать темы
    Вы не можете отвечать на сообщения
    Вы не можете редактировать свои сообщения
    Вы не можете удалять свои сообщения
    Вы не можете голосовать в опросах
    Вы не можете прикреплять файлы к сообщениям
    Вы можете скачивать файлы