Ссылка на приватное зеркало нашего сайта всего за 1$. Внимание количество ограничено!!!

2 сезон

iTunes

1 сезон

1

iTunes

iTunes

iTunes

1 сезон

RePack

30

ИГРА 18+

pack

ВАЖНО

!!Акция!!

Alien_RageХит недели

RePack

MK11
pack

Забери бонус

RePack

jed

!!Акция!!

Alien_Rage

RePack

fifa19

RePack

Assassins Creed: Odyssey

RePack

NEED FOR SPEED™ PAYBACK

4 сезон

9 сезон

Бесстыжие 9 сезон

Все сериалы

все сериалы на PB.wtf

RePack

FAR CRY 5
  

Жизнь других / Das Leben der Anderen (Флориан Хенкель фон Доннерсмарк ) [2006, триллер, драма, BDRip 720p от _denis_100 | NNNB] DUB + MVO + 2xAVO + Original + Sub (Rus,Eng,Ger) pb.wtf

Жизнь других через торрент pb.wtf

Размер: 10.85 GB | Добавлен: 2 года 8 мес. назад | Торрент скачан:143 раза
Скачать  

28-01-2018 12:18 Жизнь других Скачать торрент  

Жизнь других / Das Leben der Anderen
«У вас нет права хранить молчание»


Год выпуска: 2006
Страна: Германия
Жанр: триллер, драма
Продолжительность: 02:17:36
Перевод: Дублированный, Профессиональный многоголосый, Авторский одноголосый
Субтитры: русские, английские, немецкие
Режиссер: Флориан Хенкель фон Доннерсмарк
В ролях: Ульрих Мюэ , Себастьян Кох , Мартина Гедек , Ульрих Тукур , Томас Тиме , Ханс-Уве Бауэр , Фолькмар Кляйнерт , Матиас Бреннер , Чарли Хюбнер , Херберт Кнауп , Бастиан Трост , Мария Грубер
Описание:
Сто тысяч сотрудников, двести тысяч информаторов. Вместе они - щит и меч партии, знаменитое Штази. Их метод - подозрение. Жизнь других - их профессия.

R - Лицам до 17 лет обязательно присутствие взрослого
Качество: BDRip 720p
Контейнер (Расширение): MKV
Видео: 1280x540, 8469 Кбит/сек, 24 кадр/сек, 0,511 Бит/[Пиксели*Кадры]
Аудио №1: русский / AC3 / 5.1 / 48 kHz / 640 kbps / |Дублированный|
Аудио №2: русский / AC3 / 2.0 / 48 kHz / 224 kbps / |Профессиональный многоголосый|
Аудио №3: русский / AC3 / 5.1 / 48 kHz / 640 kbps / |Авторский одноголосый, Ю.Немахов|
Аудио №4: русский / AC3 / 5.1 / 48 kHz / 448 kbps / |Авторский одноголосый, А.Алексеев|
Аудио №5: немецкий / AC3 / 5.1 / 48 kHz / 640 kbps /
Навигация по главам(Чаптеры): естьАвтор рипа: Группа:
Format : Matroska
Format version : Version 2
File size : 10.8 GiB
Duration : 2 h 17 min
Overall bit rate : 11.3 Mb/s
Movie name : The Lives of Others.(2006).BDRip.720p.[denis100]
Encoded date : UTC 2018-01-28 11:50:39
Writing application : mkvmerge v5.8.0 ('No Sleep / Pillow') built on Sep 2 2012 15:37:04
Writing library : libebml v1.2.3 + libmatroska v1.3.0

Video
ID : 1
Format : AVC
Format/Info : Advanced Video Codec
Format profile : High@L4.1
Format settings, CABAC : Yes
Format settings, ReFrames : 11 frames
Codec ID : V_MPEG4/ISO/AVC
Duration : 2 h 17 min
Bit rate : 8 470 kb/s
Width : 1 280 pixels
Height : 540 pixels
Display aspect ratio : 2.40:1
Frame rate mode : Constant
Frame rate : 24.000 FPS
Color space : YUV
Chroma subsampling : 4:2:0
Bit depth : 8 bits
Scan type : Progressive
Bits/(Pixel*Frame) : 0.511
Stream size : 8.14 GiB (75%)
Title : The Lives of Others.(2006).BDRip.720p.[denis100]
Writing library : x264 core 152 r2851 ba24899
Encoding settings : cabac=1 / ref=11 / deblock=1:-3:-3 / analyse=0x3:0x113 / me=umh / subme=11 / psy=1 / psy_rd=1.00:0.10 / mixed_ref=1 / me_range=32 / chroma_me=1 / trellis=2 / 8x8dct=1 / cqm=0 / deadzone=21,11 / fast_pskip=0 / chroma_qp_offset=-3 / threads=6 / lookahead_threads=1 / sliced_threads=0 / nr=0 / decimate=1 / interlaced=0 / bluray_compat=0 / constrained_intra=0 / bframes=12 / b_pyramid=2 / b_adapt=2 / b_bias=0 / direct=3 / weightb=1 / open_gop=0 / weightp=2 / keyint=240 / keyint_min=24 / scenecut=40 / intra_refresh=0 / rc=crf / mbtree=0 / crf=17.4 / qcomp=0.60 / qpmin=0 / qpmax=69 / qpstep=4 / ip_ratio=1.40 / pb_ratio=1.30 / aq=1:0.85
Language : English
Default : Yes
Forced : No

Audio #1
ID : 2
Format : AC-3
Format/Info : Audio Coding 3
Mode extension : CM (complete main)
Format settings, Endianness : Big
Codec ID : A_AC3
Duration : 2 h 17 min
Bit rate mode : Constant
Bit rate : 640 kb/s
Channel(s) : 6 channels
Channel positions : Front: L C R, Side: L R, LFE
Sampling rate : 48.0 kHz
Frame rate : 31.250 FPS (1536 spf)
Compression mode : Lossy
Stream size : 630 MiB (6%)
Title : Dub
Language : Russian
Default : Yes
Forced : No

Audio #2
ID : 3
Format : AC-3
Format/Info : Audio Coding 3
Mode extension : CM (complete main)
Format settings, Endianness : Big
Codec ID : A_AC3
Duration : 2 h 17 min
Bit rate mode : Constant
Bit rate : 224 kb/s
Channel(s) : 2 channels
Channel positions : Front: L R
Sampling rate : 48.0 kHz
Frame rate : 31.250 FPS (1536 spf)
Compression mode : Lossy
Stream size : 220 MiB (2%)
Title : MVO
Language : Russian
Default : No
Forced : No

Audio #3
ID : 4
Format : AC-3
Format/Info : Audio Coding 3
Mode extension : CM (complete main)
Format settings, Endianness : Big
Codec ID : A_AC3
Duration : 2 h 17 min
Bit rate mode : Constant
Bit rate : 640 kb/s
Channel(s) : 6 channels
Channel positions : Front: L C R, Side: L R, LFE
Sampling rate : 48.0 kHz
Frame rate : 31.250 FPS (1536 spf)
Compression mode : Lossy
Stream size : 630 MiB (6%)
Title : AVO, Ю.Немахов
Language : Russian
Default : No
Forced : No

Audio #4
ID : 5
Format : AC-3
Format/Info : Audio Coding 3
Mode extension : CM (complete main)
Format settings, Endianness : Big
Codec ID : A_AC3
Duration : 2 h 17 min
Bit rate mode : Constant
Bit rate : 448 kb/s
Channel(s) : 6 channels
Channel positions : Front: L C R, Side: L R, LFE
Sampling rate : 48.0 kHz
Frame rate : 31.250 FPS (1536 spf)
Compression mode : Lossy
Stream size : 441 MiB (4%)
Title : AVO, А.Алексеев
Language : Russian
Default : No
Forced : No

Audio #5
ID : 6
Format : AC-3
Format/Info : Audio Coding 3
Mode extension : CM (complete main)
Format settings, Endianness : Big
Codec ID : A_AC3
Duration : 2 h 17 min
Bit rate mode : Constant
Bit rate : 640 kb/s
Channel(s) : 6 channels
Channel positions : Front: L C R, Side: L R, LFE
Sampling rate : 48.0 kHz
Frame rate : 31.250 FPS (1536 spf)
Compression mode : Lossy
Stream size : 630 MiB (6%)
Title : Ger
Language : German
Default : No
Forced : No

Text #1
ID : 7
Format : UTF-8
Codec ID : S_TEXT/UTF8
Codec ID/Info : UTF-8 Plain Text
Language : Russian
Default : No
Forced : No

Text #2
ID : 8
Format : UTF-8
Codec ID : S_TEXT/UTF8
Codec ID/Info : UTF-8 Plain Text
Language : English
Default : No
Forced : No

Text #3
ID : 9
Format : UTF-8
Codec ID : S_TEXT/UTF8
Codec ID/Info : UTF-8 Plain Text
Language : German
Default : No
Forced : No

Menu
00:00:00.000 : :Chapter 01
00:07:16.541 : :Chapter 02
00:18:27.375 : :Chapter 03
00:29:20.375 : :Chapter 04
00:33:10.958 : :Chapter 05
00:39:56.583 : :Chapter 06
00:54:48.083 : :Chapter 07
01:01:08.083 : :Chapter 08
01:10:16.958 : :Chapter 09
01:21:00.208 : :Chapter 10
01:31:32.625 : :Chapter 11
01:41:12.708 : :Chapter 12
01:50:00.083 : :Chapter 13
01:57:37.958 : :Chapter 14
02:01:56.916 : :Chapter 15
02:08:27.083 : :Chapter 16
pb.wtf



Скачать Жизнь других через торрент http://i3.imageban.ru/out/2018/01/28/9fdb859294cd7f731f3d939b75004f1a.png Скачать фильм Жизнь других через торрент бесплантно в хорошем качестве Описание:Сто тысяч сотрудников, двести тысяч информаторов. Вместе они - щит и меч партии, знаменитое Штази. Их метод - подозрение. Жизнь ... 10 10 2
Info! Золотая раздача, скачанное не засчитывается.
Торрент: Зарегистрирован [2018-01-28 12:18] · скачан: 143 раз
Статус: √ проверено
Размер: 10.85 GB
Как cкачать? Как скачать Жизнь других через торрент | qTorrent

% Раздел Тема Автор DL S | L
Фильмы 2006-2008 [ 2.07 GB ] Жизнь других / Das Leben der Anderen [2006 HDRip] кэп Скачать
1 | 0
Фильмы 2006-2008 [ 1.37 GB ] Жизнь других / Das Leben der Anderen [2006 HDRip лицензия] TekkenxD Скачать
1 | 0

28-11-2019 20:33  

Отключить всю рекламу на сайте

    Дорогой пользователь! Огромная просьба, поблагодарите релизера, оцените раздачу и оставьте свои комментарий, если Вы скачали Жизнь других через торрент бесплатно! Внесите свою лепту в развитие PiratBit!
    Комментировать посты могут только пользователи прошедшие не сложную регистрацию
    Показать сообщения:    

    Жизнь других через торрент
    Скачать бесплатно Жизнь других
    Жизнь других скачать торрент
    Жизнь других смотреть онлайн
    Cкачать фильм Жизнь других бесплатно
    Жизнь других скачать торрент в хорошем качестве
    Жизнь других смотреть онлайн бесплатно в хорошем качестве


    Вы не можете начинать темы
    Вы не можете отвечать на сообщения
    Вы не можете редактировать свои сообщения
    Вы не можете удалять свои сообщения
    Вы не можете голосовать в опросах
    Вы не можете прикреплять файлы к сообщениям
    Вы можете скачивать файлы