Ссылка на приватное зеркало всего за 1$. Внимание количество ограничено!!!

OK

1+1

iTunes

мы

OK

1

WEB-DLRip

Джокер

Пифагор

Ведьмак / The Witcher сериал

iTunes

ПШазам

ОК

Оно 2

iTunes

30
pack

Вам бонус

ВАЖНО

!!Акция!!

Alien_RageХит недели

RePack

Resident Evil 21

ИГРА 18+

pack

RePack

jed

RePack

fifa19

RePack

Assassins Creed: Odyssey

RePack

NEED FOR SPEED™ PAYBACK

4 сезон

9 сезон

Бесстыжие 9 сезон

Все сериалы

все сериалы на PB.wtf

RePack

FAR CRY 5
  

Сосед / The Neighbor (Аарон Харви) [2017, триллер, драма, WEB-DL 720p] MVO ["Синема УС"] pb.wtf

Сосед через торрент pb.wtf

Размер: 3.29 GB | Добавлен: 1 год 11 мес. назад | Торрент скачан:110 раз
Скачать  

28-01-2018 12:39 Сосед Скачать торрент  

Сосед / The NeighborГод выпуска: 2017
Страна: США
Жанр: триллер, драма
Продолжительность: 01:38:19
Перевод: Любительский (многоголосый) ["Синема УС"]
Субтитры: отсутствуют

Режиссер: Аарон Харви

rating

В ролях:

Уильям Фихтнер, Джессика МакНэми, Джин Луиса Келли, Майкл Розенбаум, Колин Вуделл, Эрик Андерсон, Роберт Арц, Джерри Шанди

Описание:

Мужчина средних лет живёт в браке, напоминающем застойное болото. Но жизнь его переворачивается, когда в соседний дом въезжают новые жильцы: привлекательная молодая женщина и её агрессивный муж.

Качество: WEB-DL 720p
Формат: MKV

Видео: 4402 Kбит/с, 1280x532
Аудио#1: Русский, (AC3, 2 ch, 384 Кбит/с)

скриншот   скриншот   скриншот  

Общее
Уникальный идентификатор : 213836938174661287428975299562725053039 (0xA0DF7F09E3F43B39A8CAE7364762126F)
Полное имя : D:\The Neighbor 2018.P.WEB-DL.72Op_KOSHARA.mkv
Формат : Matroska
Версия формата : Version 2
Размер файла : 3,29 Гбайт
Продолжительность : 1 ч. 38 м.
Режим общего битрейта : Переменный
Общий поток : 4787 Кбит/сек
Дата кодирования : UTC 2018-01-27 17:38:46
Программа кодирования : mkvmerge v8.3.0 ('Over the Horizon') 64bit
Библиотека кодирования : libebml v1.3.1 + libmatroska v1.4.2

Видео
Идентификатор : 1
Формат : AVC
Формат/Информация : Advanced Video Codec
Профиль формата : High@L4.1
Параметр CABAC формата : Да
Параметр ReFrames формата : 4 кадра
Идентификатор кодека : V_MPEG4/ISO/AVC
Продолжительность : 1 ч. 38 м.
Вид битрейта : Переменный
Битрейт : 4402 Кбит/сек
Максимальный битрейт : 4800 Кбит/сек
Ширина : 1280 пикселей
Высота : 532 пикселя
Соотношение сторон : 2,40:1
Режим частоты кадров : Постоянный
Частота кадров : 23,976 (24000/1001) кадра/сек
Стандарт вещания : Component
Цветовое пространство : YUV
Субдискретизация насыщенности : 4:2:0
Битовая глубина : 8 бит
Тип развёртки : Прогрессивная
Бит/(Пиксели*Кадры) : 0.264
Размер потока : 2,96 Гбайт (90%)
Default : Да
Forced : Нет
Цветовой диапазон : Limited
Основные цвета : BT.709
Характеристики трансфера : BT.709
Коэффициенты матрицы : BT.709

Аудио
Идентификатор : 2
Формат : AC-3
Формат/Информация : Audio Coding 3
Расширение режима : CM (complete main)
Параметр Endianness формата : Big
Идентификатор кодека : A_AC3
Продолжительность : 1 ч. 38 м.
Вид битрейта : Постоянный
Битрейт : 384 Кбит/сек
Каналы : 2 канала
Расположение каналов : Front: L R
Частота : 48,0 КГц
Частота кадров : 31,250 кадров/сек (1536 spf)
Метод сжатия : С потерями
Размер потока : 270 Мбайт (8%)
Default : Да
Forced : Нет

pb.wtf



Скачать Сосед через торрент http://img12.lostpic.net/2018/01/28/2f21910731545c17751fcd5ce93665e5.jpg Скачать фильм Сосед через торрент бесплантно в хорошем качестве Описание: Мужчина средних лет живёт в браке, напоминающем застойное болото. Но жизнь его переворачивается, когда в соседний дом въезжают ... 10 10 7
Торрент: Зарегистрирован [2018-01-28 12:39] · скачан: 110 раз
Статус: T временная
Размер: 3.29 GB
Как cкачать? Как скачать Сосед через торрент | qTorrent

% Раздел Тема Автор DL S | L
Фильмы без перевода [ 11.13 GB ] Сосед / El vecino / The Neighbor / Сезон: 1 / Серия: 1-10 из 10 [2019 WEBRip 1080p] [Multi Subs] killermax2013 Скачать
1 | 0
T Фильмы (мультфильмы) cо спонсором показа (Новинки AVI/MKV) [ 1.37 GB ] Прекрасный день по соседству / A Beautiful Day in the Neighborhood [2019 DVDScr] [DVO] killermax2013 Скачать
4 | 0
Зарубежные сериалы [ 20.69 GB ] Соседство / The Neighborhood / Сезон: 2 / Серии: 1-13 из 21 [2019 WEB-DL 1080p] MVO [TVShows] bober100 Скачать
1 | 0
Порно фильмы с сюжетом [ 1005 MB ] 40 Лет Обучение Моего Молодого Соседа / 40 Years Old The Education of My Young Neighbor [2019 Feature Blowjobs Cougars Old & Young Females Threesomes MILF WEB-DL] CocaineYarik Скачать
6 | 0
Зарубежные сериалы [ 5.16 GB ] Соседство / Соседи / The Neighborhood / Сезон: 1 / Серии: 1-21 из 21 [2018 WEB-DLRip] [MVO] killermax2013 Скачать
3 | 0
Порно фильмы с сюжетом [ 1005 MB ] 40 лет Образование Моего Молодого Соседа / 40 Years Old The Education of My Young Neighbor [2019 Feature Foreign Oral All Sex Old & Young Females Threesomes. MILF WEB-DLRip] sheker187 Скачать
3 | 0
Порно фильмы HD [ 2.59 GB ] 40 лет Образование Моего Молодого Соседа / 40 Years Old The Education of My Young Neighbor [2019 Feature All Sex Anal Stockings Pantyhose MILF France WEB-DL] bashai5 Скачать
3 | 0

28-11-2019 20:33  

Отключить всю рекламу на сайте

    Дорогой пользователь! Огромная просьба, поблагодарите релизера, оцените раздачу и оставьте свои комментарий, если Вы скачали Сосед через торрент бесплатно! Внесите свою лепту в развитие PiratBit!
    Комментировать посты могут только пользователи прошедшие не сложную регистрацию
    Показать сообщения:    

    Сосед через торрент
    Скачать бесплатно Сосед
    Сосед скачать торрент
    Сосед смотреть онлайн
    Cкачать фильм Сосед бесплатно
    Сосед скачать торрент в хорошем качестве
    Сосед смотреть онлайн бесплатно в хорошем качестве


    Вы не можете начинать темы
    Вы не можете отвечать на сообщения
    Вы не можете редактировать свои сообщения
    Вы не можете удалять свои сообщения
    Вы не можете голосовать в опросах
    Вы не можете прикреплять файлы к сообщениям
    Вы можете скачивать файлы