Marvel's Avengers Deluxe Edition (супер цена) 159р. Внимание количество ограничено!!!

2 сезон

iTunes

iTunes

1

iTunes

iTunes

iTunes

WEBRip

iTunes

30
pack

Новость дня

ВАЖНО

!!Акция!!

Alien_RageХит недели

RePack

Horizon Zero Dawn

ИГРА 18+

pack

RePack

jed

!!Акция!!

Alien_Rage

RePack

fifa19

RePack

Assassins Creed: Odyssey

RePack

NEED FOR SPEED™ PAYBACK

4 сезон

9 сезон

Бесстыжие 9 сезон

Все сериалы

все сериалы на PB.wtf

RePack

FAR CRY 5
  

Происшествие / Accident (Дэн Тондовски) [2017, боевик, триллер, BDRip 720p] MVO ["Синема УС"] pb.wtf

Происшествие через торрент pb.wtf

Размер: 4 GB | Добавлен: 2 года 7 мес. назад | Торрент скачан:78 раз
Скачать  

28-01-2018 12:54 Происшествие Скачать торрент  

Происшествие / AccidentГод выпуска: 2017
Страна: ЮАР, Франция
Жанр: боевик, триллер
Продолжительность: 01:32:49
Перевод: Любительский (многоголосый) ["Синема УС"]
Субтитры: отсутствуют

Режиссер: Дэн Тондовски

rating

В ролях:

Стефани Шилдкнект, Роксана Хейуорд, Тайрон Кеог, Карл Танинг, Алекс Эн-лос

Описание:

Эпическая история двух друзей , которые встретились в самые тёмные времена в истории Гонконга, и смогли подчинить себе и закон и преступность, создав черно-белую империю, существовавшую бок о бок с колониальной администрацией, которая готова была закрывать глаза на что угодно до тех пор, пока никто не трогает самих англичан.

Качество: BDRip 720p
Формат: MKV
Видео кодек: H.264
Аудио кодек: AC3

Видео: 5718 Kбит/с, 1280x536
Аудио#1: Русский, (AC3, 2 ch, 448 Кбит/с)

скриншот   скриншот   скриншот  

Общее
Уникальный идентификатор : 212862904665699663422436429013283772396 (0xA023E77A99D62E23A8ABCCA4D4AC17EC)
Полное имя : D:\Accident.2017.P.BDRip.72Op_KOSHARA.mkv
Формат : Matroska
Версия формата : Version 2
Размер файла : 4,00 Гбайт
Продолжительность : 1 ч. 32 м.
Режим общего битрейта : Переменный
Общий поток : 6168 Кбит/сек
Дата кодирования : UTC 2018-01-27 17:45:36
Программа кодирования : mkvmerge v8.3.0 ('Over the Horizon') 64bit
Библиотека кодирования : libebml v1.3.1 + libmatroska v1.4.2

Видео
Идентификатор : 1
Формат : AVC
Формат/Информация : Advanced Video Codec
Профиль формата : High@L4.1
Параметр CABAC формата : Да
Параметр ReFrames формата : 4 кадра
Идентификатор кодека : V_MPEG4/ISO/AVC
Продолжительность : 1 ч. 32 м.
Вид битрейта : Переменный
Битрейт : 5718 Кбит/сек
Максимальный битрейт : 6100 Кбит/сек
Ширина : 1280 пикселей
Высота : 536 пикселей
Соотношение сторон : 2,40:1
Режим частоты кадров : Постоянный
Частота кадров : 23,976 (24000/1001) кадра/сек
Стандарт вещания : Component
Цветовое пространство : YUV
Субдискретизация насыщенности : 4:2:0
Битовая глубина : 8 бит
Тип развёртки : Прогрессивная
Бит/(Пиксели*Кадры) : 0.340
Размер потока : 3,63 Гбайт (91%)
Default : Да
Forced : Нет
Цветовой диапазон : Limited
Основные цвета : BT.709
Характеристики трансфера : BT.709
Коэффициенты матрицы : BT.709

Аудио
Идентификатор : 2
Формат : AC-3
Формат/Информация : Audio Coding 3
Расширение режима : CM (complete main)
Параметр Endianness формата : Big
Идентификатор кодека : A_AC3
Продолжительность : 1 ч. 32 м.
Вид битрейта : Постоянный
Битрейт : 448 Кбит/сек
Каналы : 2 канала
Расположение каналов : Front: L R
Частота : 48,0 КГц
Частота кадров : 31,250 кадров/сек (1536 spf)
Метод сжатия : С потерями
Размер потока : 297 Мбайт (7%)
Default : Да
Forced : Нет

pb.wtf



Скачать Происшествие через торрент http://img12.lostpic.net/2018/01/28/8c6f2ea84046b5b4c8b1a71090968c93.jpg Скачать фильм Происшествие через торрент бесплантно в хорошем качестве Описание: Эпическая история двух друзей , которые встретились в самые тёмные времена в истории а, и смогли подчинить себе и закон и ... 9.4 10 5
Торрент: Зарегистрирован [2018-01-28 12:54] · скачан: 78 раз
Статус: # сомнительно
Размер: 4 GB
Как cкачать? Как скачать Происшествие через торрент | qTorrent

% Раздел Тема Автор DL S | L
T Фильмы (мультфильмы) cо спонсором показа (Новинки AVI/MKV) [ 1.37 GB ] Происшествие / Accident [2017 HDRip] MVO ["Синема УС"] bober100 Скачать
1 | 0
Фильмы 2014 (Звук TS, Cam, VO, DVO) [ 1.37 GB ] Маленькие происшествия / Little Accidents [2014 HDRip Любительский [Pashaup] GEKADOL Скачать
1 | 0
Индийское кино [ 703 MB ] Происшествие на Хилроуд / Accident on Hill Road [2010 ... DVDRip] kycher1972 Скачать
1 | 0
Фильмы 2010 [ 703 MB ] Происшествие на Хиллроад / Accident on Hill Road [2010 DVDRip] aspace Скачать
1 | 0

28-11-2019 20:33  

Отключить всю рекламу на сайте

28-01-2018 17:22 Происшествие Скачать торрент  

описание не соответствует фильмуpb.wtf



    Дорогой пользователь! Огромная просьба, поблагодарите релизера, оцените раздачу и оставьте свои комментарий, если Вы скачали Происшествие через торрент бесплатно! Внесите свою лепту в развитие PiratBit!
    Комментировать посты могут только пользователи прошедшие не сложную регистрацию
    Показать сообщения:    

    Происшествие через торрент
    Скачать бесплатно Происшествие
    Происшествие скачать торрент
    Происшествие смотреть онлайн
    Cкачать фильм Происшествие бесплатно
    Происшествие скачать торрент в хорошем качестве
    Происшествие смотреть онлайн бесплатно в хорошем качестве


    Вы не можете начинать темы
    Вы не можете отвечать на сообщения
    Вы не можете редактировать свои сообщения
    Вы не можете удалять свои сообщения
    Вы не можете голосовать в опросах
    Вы не можете прикреплять файлы к сообщениям
    Вы можете скачивать файлы