2 сезон

iTunes

MVO

1

2 сезон

iTunes

iTunes

1 сезон

RePack

30

Новинка

ВАЖНО

ИГРА 18+

pack

RePack

MK11
pack

Легкие деньги

RePack

jed

RePack

fifa19

RePack

RDR2

RePack

NEED FOR SPEED™ PAYBACK

4 сезон

9 сезон

Бесстыжие 9 сезон

Все сериалы

все сериалы на PB.wtf

RePack

FAR CRY 5

Anonymous, доброй ночи, мы не успеваем собрать деньги на оплату серверов за декабрь и январь, помогите нам пожалуйста в это трудное время. В качестве благодарности мы отключим Вам всю рекламу на сайте (укажите свой ник в строку Ваше имя)!

×
  
Magnet ссылка

Йеллоустоун. Битва за жизнь / BBC: Yellowstone. Battle for life / Серии: 1-3 из 4 (Эндрю Мюррей) [2009, Документальный, природа, животные, птицы, флора, фауна, видовой, BD Remux 1080p] VO pb.wtf

Йеллоустоун. Битва за жизнь через торрент pb.wtf

Размер: 30.79 GB | Добавлен: 2 года 11 мес. назад | Торрент скачан:30 раз
Скачать  

28-01-2018 14:54 Йеллоустоун. Битва за жизнь Скачать торрент  

Йеллоустоун. Битва за жизнь / BBC: Yellowstone. Battle for lifeГод выпуска: 2009
Страна: США
Жанр: Документальный, природа, животные, птицы, флора, фауна, видовой
Продолжительность: 3 x 00:49:00
Перевод: Профессиональный (одноголосый)
Субтитры: отсутствуют

Режиссер: Эндрю Мюррей

rating

Описание:

Йеллоустоун — необычное место дикой природы. Он считается старейшим национальным парком США и представляет собой затерянный мир великих равнин, зеленых лугов и бесконечных лесов, защищенных со всех сторон величественными горами. Уникальное творение природы в котором обитают американские бизоны, медведи гризли, лоси и волки, ведущие непрерывную борьбу за выживание в прекрасном и в то-же время суровом уголке нашей планеты. Фильм состоит из 3-х частей: Зима, лето и осень.

Качество: BD Remux 1080p
Формат: MKV
Видео кодек: H.264
Аудио кодек: DTS

Видео: 1920х1080, 27,5 Мбит/с, 30 кадра/с
Аудио: DTS-HD MA, 6 каналов, 2150 Кбит/с
скриншот   скриншот   скриншот   скриншот   скриншот   скриншот  

Общее
Уникальный идентификатор : 242596177353798972245185652958986204307 (0xB682530120AA5FD0E802A7B070137493)
Полное имя : C:UsersDVideosЙЕЛЛОУСТОУН1. ЗИМА.mkv
Формат : Matroska
Версия формата : Version 4 / Version 2
Размер файла : 10,2 Гбайт
Продолжительность : 49 м. 14 с.
Режим общего битрейта : Переменный
Общий поток : 29,6 Мбит/сек
Дата кодирования : UTC 2018-01-26 14:25:48
Программа кодирования : mkvmerge v20.0.0 ('I Am The Sun') 64-bit
Библиотека кодирования : libebml v1.3.5 + libmatroska v1.4.8

Видео
Идентификатор : 1
Формат : AVC
Формат/Информация : Advanced Video Codec
Профиль формата : High@L4.1
Настройки формата : CABAC / 4 Ref Frames
Параметр CABAC формата : Да
Параметр RefFrames формата : 4 кадра
Параметр GOP формата : M=3, N=24
Идентификатор кодека : V_MPEG4/ISO/AVC
Продолжительность : 49 м. 11 с.
Вид битрейта : Переменный
Битрейт : 27,5 Мбит/сек
Максимальный битрейт : 35,0 Мбит/сек
Ширина : 1920 пикселей
Высота : 1080 пикселей
Соотношение сторон : 16:9
Режим частоты кадров : Переменный
Частота кадров : 59,940 (60000/1001) кадров/сек
Частота кадров в оригинале : 29,970 (30000/1001) кадров/сек
Стандарт вещания : NTSC
Цветовое пространство : YUV
Субдискретизация насыщенности : 4:2:0
Битовая глубина : 8 бит
Тип развёртки : Чересстрочная
Метод сохранения типа развёртки : Раздельные поля
Порядок развёртки : Верхнее поле первое
Бит/(Пиксели*Кадры) : 0.221
Размер потока : 9,45 Гбайт (93%)
Default : Да
Forced : Нет
Цветовой диапазон : Limited
Основные цвета : BT.709
Характеристики трансфера : BT.709
Коэффициенты матрицы : BT.709

Аудио
Идентификатор : 2
Формат : DTS
Формат/Информация : Digital Theater Systems
Профиль формата : MA / Core
Идентификатор кодека : A_DTS
Продолжительность : 49 м. 14 с.
Вид битрейта : Переменный / Постоянный
Битрейт : 2150 Кбит/сек / 1509 Кбит/сек
Каналы : 6 каналов
Расположение каналов : Front: L C R, Side: L R, LFE
Частота : 48,0 КГц
Частота кадров : 93,750 кадра/сек (512 SPF)
Битовая глубина : 16 бит
Метод сжатия : Без потерь / Lossy
Размер потока : 757 Мбайт (7%)
Язык : Russian
Default : Да
Forced : Нет

Когда раздача ведётся путём добавления новых серий, при каждом добавлении создётся новый торрент. Чтобы начать докачку новой серии, пользователям необходимо сделать следующее:
(1) остановить скачивание,
(2) удалить старый торрент у себя из клиента (старые серии удалять не надо),
(3) скачать новый торрент и запустить его у себя в клиенте вместо старого, при этом указать клиенту путь в старую папку, куда и должно происходить скачивание новых серий.
Ваш клиент при этом должен произвести хеширование (проверку) старой папки (если не производит сам - помогите ему сделать это), и будет докачивать только те серии, которых у вас ещё нет. Старые серии при этом не удаляются, а продолжают раздаваться!
Eсли вы уже удалили старые серии, то предотвратить повторную закачку старых серий можно, отжав галочку в соответсвующих местах при запуске нового торрента. По возможности, желательно не удалять старые серии как можно дольше, чтобы релизёр не столько продолжал раздавать старые серии, а смог сконцентрироваться на новых.
pb.wtf



Скачать Йеллоустоун. Битва за жизнь через торрент http://i1.imageban.ru/out/2018/01/27/e1fb87615bf0a9dc0d748b8f52611e84.jpg Скачать фильм Йеллоустоун. Битва за жизнь через торрент бесплантно в хорошем качестве Описание: Йеллоустоун — необычное место дикой природы. Он считается старейшим национальным парком США и представляет собой затерянный мир ... 9.6 10 5
Info! Золотая раздача, скачанное не засчитывается.
Торрент: Зарегистрирован [2018-01-28 14:54] · скачан: 30 раз
Статус: √ проверено
Размер: 30.79 GB
Как cкачать? Как скачать Йеллоустоун. Битва за жизнь через торрент | UTorrent

28-11-2019 20:33  

Отключить всю рекламу на сайте

    Дорогой пользователь! Огромная просьба, поблагодарите релизера, оцените раздачу и оставьте свои комментарий, если Вы скачали Йеллоустоун. Битва за жизнь через торрент бесплатно! Внесите свою лепту в развитие PiratBit!
    Комментировать посты могут только пользователи прошедшие не сложную регистрацию
    Показать сообщения:    

    Йеллоустоун. Битва за жизнь через торрент
    Скачать бесплатно Йеллоустоун. Битва за жизнь
    Йеллоустоун. Битва за жизнь скачать торрент
    Йеллоустоун. Битва за жизнь смотреть онлайн
    Cкачать фильм Йеллоустоун. Битва за жизнь бесплатно
    Йеллоустоун. Битва за жизнь скачать торрент в хорошем качестве
    Йеллоустоун. Битва за жизнь смотреть онлайн бесплатно в хорошем качестве


    Вы не можете начинать темы
    Вы не можете отвечать на сообщения
    Вы не можете редактировать свои сообщения
    Вы не можете удалять свои сообщения
    Вы не можете голосовать в опросах
    Вы не можете прикреплять файлы к сообщениям
    Вы можете скачивать файлы