Ссылка на приватное зеркало нашего сайта всего за 1$. Внимание количество ограничено!!!

2 сезон

iTunes

1 сезон

1

2 сезон

2 сезон

iTunes

1 сезон

RePack

30

Ultimate

ВАЖНО

ИГРА 18+

pack

RePack

MK11
pack

Забери бонус

RePack

jed

!!Акция!!

Alien_Rage

RePack

fifa19

RePack

Assassins Creed: Odyssey

RePack

NEED FOR SPEED™ PAYBACK

4 сезон

9 сезон

Бесстыжие 9 сезон

Все сериалы

все сериалы на PB.wtf

RePack

FAR CRY 5
  

Ординатор / The Resident / Сезон: 1 / Серия: 1-14 из 14 [2018, Драма, медицина, WEB-DL 1080p] [MVO] (Newstudio) pb.wtf

Ординатор через торрент pb.wtf

Размер: 26.02 GB | Добавлен: 2 года 2 мес. назад | Торрент скачан:28 раз
Скачать  

28-01-2018 19:00 Ординатор Скачать торрент  


Ординатор / The Resident


• Год выпуска: 2018
• Страна: США, 20th Century Fox Television, 3 Arts Entertainment, Fuqua Films
• Жанр: Драма, медицина
• Продолжительность: ~ 00:45:00
• Перевод: Профессиональный (многоголосый закадровый) | Newstudio

• Режиссёр: Роб Корн, Билл Д’Элиа, Филлип Нойс

• В ролях: Мэтт Зукри, Эмили ВанКэмп, Мелина Канакаридис, Ван Мартен, Маниш Дайал, Тассо Фельдман, Джессика Мизел, Винс Фостер, Элизабет Лудлоу, Кэролайн Фридлюнд

• Описание: Сериал рассказывает о молодом враче с идеалистическими взглядами на жизнь, который начинает работать под началом блестящего и более опытного врача. Со временем главный герой понимает, что не всё так просто, и в его работе есть сотня нюансов, на которые невозможно закрыть глаза.



• Качество: WEB-DL 1080p
• Формат: MKV
• Видео: 1920x1080, 23.976 fps, MPEG-4 AVC ~5144 kbps avg
• Аудио: 48 kHz, AC3, 6 ch, 384 kbps - MVO
• Аудио: 48 kHz, AC3, 6 ch, 384 kbps - ENG
• Субтитры: Russian
General
Unique ID : 40200284281013184879681146282879752818 (0x1E3E4B0A5E765603B2F1391E0F7C1A72)
Complete name : E:\The.Resident ( (Season 01)\The.Resident.s01e01.WEBDL.1080p.REPACK.NewStudio.TV.mkv
Format : Matroska
Format version : Version 4 / Version 2
File size : 1.87 GiB
Duration : 44 min 50 s
Overall bit rate : 5 957 kb/s
Encoded date : UTC 2018-01-22 14:30:14
Writing application : mkvmerge v20.0.0 ('I Am The Sun') 64-bit
Writing library : libebml v1.3.5 + libmatroska v1.4.8

Video
ID : 1
Format : AVC
Format/Info : Advanced Video Codec
Format profile : High@L4
Format settings : CABAC / 4 Ref Frames
Format settings, CABAC : Yes
Format settings, RefFrames : 4 frames
Codec ID : V_MPEG4/ISO/AVC
Duration : 44 min 50 s
Bit rate : 5 070 kb/s
Width : 1 920 pixels
Height : 1 080 pixels
Display aspect ratio : 16:9
Frame rate mode : Constant
Frame rate : 23.976 (24000/1001) FPS
Color space : YUV
Chroma subsampling : 4:2:0
Bit depth : 8 bits
Scan type : Progressive
Bits/(Pixel*Frame) : 0.102
Stream size : 1.59 GiB (85%)
Language : English
Default : Yes
Forced : No
Color range : Limited
Color primaries : BT.709
Transfer characteristics : BT.709
Matrix coefficients : BT.709

Audio #1
ID : 2
Format : AC-3
Format/Info : Audio Coding 3
Format settings, Endianness : Big
Codec ID : A_AC3
Duration : 44 min 50 s
Bit rate mode : Constant
Bit rate : 384 kb/s
Channel(s) : 6 channels
Channel positions : Front: L C R, Side: L R, LFE
Sampling rate : 48.0 kHz
Frame rate : 31.250 FPS (1536 SPF)
Bit depth : 16 bits
Compression mode : Lossy
Delay relative to video : -42 ms
Stream size : 123 MiB (6%)
Title : NewStudio.TV
Language : Russian
Service kind : Complete Main
Default : Yes
Forced : No

Audio #2
ID : 3
Format : AC-3
Format/Info : Audio Coding 3
Format settings, Endianness : Big
Codec ID : A_AC3
Duration : 44 min 50 s
Bit rate mode : Constant
Bit rate : 384 kb/s
Channel(s) : 6 channels
Channel positions : Front: L C R, Side: L R, LFE
Sampling rate : 48.0 kHz
Frame rate : 31.250 FPS (1536 SPF)
Bit depth : 16 bits
Compression mode : Lossy
Delay relative to video : -42 ms
Stream size : 123 MiB (6%)
Language : English
Service kind : Complete Main
Default : No
Forced : No

Text
ID : 4
Format : ASS
Codec ID : S_TEXT/ASS
Codec ID/Info : Advanced Sub Station Alpha
Compression mode : Lossless
Title : Forced
Language : Russian
Default : Yes
Forced : Yes

скриншот  скриншот  скриншот  
pb.wtf



Скачать Ординатор через торрент http://i103.fastpic.ru/big/2018/0128/58/4ec61f245999b2ad69e7b7167e6d6958.jpg Скачать фильм Ординатор через торрент бесплантно в хорошем качестве Описание: Сериал рассказывает о молодом враче с идеалистическими взглядами на жизнь, который начинает работать под началом блестящего и ... 10 10 4
Info! Золотая раздача, скачанное не засчитывается.
Торрент: Зарегистрирован [2018-09-09 10:25] · скачан: 28 раз
Статус: √ проверено
Размер: 26.02 GB
Как cкачать? Как скачать Ординатор через торрент | qTorrent

% Раздел Тема Автор DL S | L
Зарубежные сериалы [ 6.94 GB ] Ординатор / The Resident / Сезон: 2 / Серии: 1-14 из 22 [2018 WEB-DLRip] [MVO] killermax2013 Скачать
1 | 0
Зарубежные сериалы [ 20.06 GB ] Ординатор / The Resident / Сезон: 1 / Серии: 1-14 из 14 [2018 WEB-DL 720p] [MVO] killermax2013 Скачать
1 | 0
Зарубежные сериалы [ 39.24 GB ] Ординатор / The Resident / Сезон: 1 / Серии: 1-14 из 14 [2018 WEBRip 1080p WEB-DL 1080p] MVO [BaibaKo] bober100 Скачать
1 | 0
Зарубежные сериалы [ 8.41 GB ] Ординатор / The Resident / Сезон: 1 / Серии: 1-14 из 14 [2018 WEBRip WEB-DLRip] MVO [BaibaKo] bober100 Скачать
1 | 0
Зарубежные сериалы [ 18.55 GB ] Ординатор / The Resident / Сезон: 1 / Серии: 1-14 из 14 [2018 WEBRip 720p] MVO [Jaskier] bober100 Скачать
1 | 0
Зарубежные сериалы [ 56.21 GB ] Ординатор / The Resident / Сезон: 1 / Серия: 1-14 из 14 [2018 WEBRip 1080p] [MVO] killermax2013 Скачать
1 | 0
Зарубежные сериалы [ 7.75 GB ] Ординатор / The Resident / Сезон: 1 / Серия: 1-14 из 14 [2018 WEBRip] [MVO] killermax2013 Скачать
1 | 0


Последний раз редактировалось: killermax2013 (2018-09-09 10:25), всего редактировалось 1 раз

28-11-2019 20:33  

Отключить всю рекламу на сайте

17-04-2018 06:50 Ординатор Скачать торрент  

pb.wtf



    Дорогой пользователь! Огромная просьба, поблагодарите релизера, оцените раздачу и оставьте свои комментарий, если Вы скачали Ординатор через торрент бесплатно! Внесите свою лепту в развитие PiratBit!
    Комментировать посты могут только пользователи прошедшие не сложную регистрацию
    Показать сообщения:    

    Ординатор через торрент
    Скачать бесплатно Ординатор
    Ординатор скачать торрент
    Ординатор смотреть онлайн
    Cкачать фильм Ординатор бесплатно
    Ординатор скачать торрент в хорошем качестве
    Ординатор смотреть онлайн бесплатно в хорошем качестве


    Вы не можете начинать темы
    Вы не можете отвечать на сообщения
    Вы не можете редактировать свои сообщения
    Вы не можете удалять свои сообщения
    Вы не можете голосовать в опросах
    Вы не можете прикреплять файлы к сообщениям
    Вы можете скачивать файлы