Ссылка на приватное зеркало нашего сайта всего за 1$. Внимание количество ограничено!!!

2 сезон

iTunes

1 сезон

1

2 сезон

2 сезон

iTunes

1 сезон

RePack

30

Ultimate

ВАЖНО

ИГРА 18+

pack

RePack

MK11
pack

Забери бонус

RePack

jed

!!Акция!!

Alien_Rage

RePack

fifa19

RePack

Assassins Creed: Odyssey

RePack

NEED FOR SPEED™ PAYBACK

4 сезон

9 сезон

Бесстыжие 9 сезон

Все сериалы

все сериалы на PB.wtf

RePack

FAR CRY 5
  

Самурай-гурман / Samurai Gourmet / Сезон: 1 / Серии: 1-12 из 12 (Митихито Фудзий, Мамору Хоси) [2017, комедия, HDTVRip 720p] DVO [SunshineStudio] pb.wtf

Самурай-гурман через торрент pb.wtf

Раздают: 1 [ 0 KB/s ]
Размер: 4.67 GB | Добавлен: 2 года 9 мес. назад | Торрент скачан:83 раза
Скачать  

29-01-2018 02:10 Самурай-гурман Скачать торрент  

Самурай-гурман / Samurai GourmetГод выпуска: 2017
Страна: Япония, Netflix
Жанр: комедия
Продолжительность: 12 х ~ 00:23:00
Перевод: Любительский (двухголосый) -
Субтитры: отсутствуют

Режиссер: Митихито Фудзий, Мамору Хоси

rating

В ролях:

Наото Такэнака, Тэцудзи Тамаяма, Хонами Судзуки, Хироки Хаяси, Хироки Икэхара, Дзёдзи Танума, Томоко Акасэ, Эйдзи Акасо, Тосимицу Амано, Рюити Андо

Описание:

Касуми Такеши всю свою жизнь посвятил работе. Сейчас он на пенсии и неожиданно для себя обнаружил, что у него теперь много свободного времени. За 35 лет в должности служащего он ни разу не позволил себе пива в будний день. И теперь у него появилась такая возможность. Выпить пива средь бела дня, что может быть лучше.

Качество: HDTVRip 720p
Формат: MKV
Видео кодек: H.264
Аудио кодек: AC3

Видео: MPEG-4 AVC, ~ 3000 Кбит/с, 1280x672
Аудио: Русский (AC3, 2 ch, 192 Кбит/с)
скриншот   скриншот   скриншот  

Общее
Уникальный идентификатор : 173771378300881819488115911941016505680 (0x82BB266C9B63532BA64B81C19703CD50)
Полное имя : C:\Samurai.Gourmet.S01.720p.SunshineStudio\Samurai.Gourmet.S01E01.720p.SunshineStudio.mkv
Формат : Matroska
Версия формата : Version 4 / Version 2
Размер файла : 373 Мбайт
Продолжительность : 19 м. 25 с.
Общий поток : 2682 Кбит/сек
Дата кодирования : UTC 2018-01-28 11:11:18
Программа кодирования : mkvmerge v8.3.0 ('Over the Horizon') 64bit
Библиотека кодирования : libebml v1.3.1 + libmatroska v1.4.2

Видео
Идентификатор : 1
Формат : AVC
Формат/Информация : Advanced Video Codec
Профиль формата : High@L3.1
Параметр CABAC формата : Да
Параметр ReFrames формата : 4 кадра
Идентификатор кодека : V_MPEG4/ISO/AVC
Продолжительность : 19 м. 25 с.
Битрейт : 2489 Кбит/сек
Ширина : 1280 пикселей
Высота : 672 пикселя
Соотношение сторон : 1,905
Режим частоты кадров : Постоянный
Частота кадров : 29,970 (29970/1000) кадров/сек
Цветовое пространство : YUV
Субдискретизация насыщенности : 4:2:0
Битовая глубина : 8 бит
Тип развёртки : Прогрессивная
Бит/(Пиксели*Кадры) : 0.097
Размер потока : 346 Мбайт (93%)
Библиотека кодирования : x264 core 146 r2538 121396c
Настройки программы : cabac=1 / ref=1 / deblock=1:0:0 / analyse=0x3:0x113 / me=hex / subme=2 / psy=1 / psy_rd=1.00:0.00 / mixed_ref=0 / me_range=16 / chroma_me=1 / trellis=0 / 8x8dct=1 / cqm=0 / deadzone=21,11 / fast_pskip=1 / chroma_qp_offset=0 / threads=18 / lookahead_threads=5 / sliced_threads=0 / nr=0 / decimate=1 / interlaced=0 / bluray_compat=0 / constrained_intra=0 / bframes=3 / b_pyramid=2 / b_adapt=1 / b_bias=0 / direct=1 / weightb=1 / open_gop=0 / weightp=1 / keyint=250 / keyint_min=25 / scenecut=40 / intra_refresh=0 / rc_lookahead=10 / rc=crf / mbtree=1 / crf=18.0 / qcomp=0.60 / qpmin=0 / qpmax=69 / qpstep=4 / ip_ratio=1.40 / aq=1:1.00
Default : Да
Forced : Нет

Аудио
Идентификатор : 2
Формат : AC-3
Формат/Информация : Audio Coding 3
Расширение режима : CM (complete main)
Параметр Endianness формата : Big
Идентификатор кодека : A_AC3
Продолжительность : 19 м. 25 с.
Вид битрейта : Постоянный
Битрейт : 192 Кбит/сек
Каналы : 2 канала
Расположение каналов : Front: L R
Частота : 48,0 КГц
Частота кадров : 31,250 кадров/сек (1536 spf)
Метод сжатия : С потерями
Размер потока : 26,7 Мбайт (7%)
Default : Да
Forced : Нет

pb.wtf



Скачать Самурай-гурман через торрент http://i103.fastpic.ru/big/2018/0128/e7/86cc45d19a9e791f64af7a14597465e7.jpg Скачать фильм Самурай-гурман через торрент бесплантно в хорошем качестве Описание: Касуми Такеши всю свою жизнь посвятил работе. Сейчас он на пенсии и неожиданно для себя обнаружил, что у него теперь много ... 10 10 3
Торрент: Зарегистрирован [2018-01-29 02:10] · скачан: 83 раз
Статус: √ проверено
Размер: 4.67 GB
Как cкачать? Как скачать Самурай-гурман через торрент | qTorrent

28-11-2019 20:33  

Отключить всю рекламу на сайте

    Дорогой пользователь! Огромная просьба, поблагодарите релизера, оцените раздачу и оставьте свои комментарий, если Вы скачали Самурай-гурман через торрент бесплатно! Внесите свою лепту в развитие PiratBit!
    Комментировать посты могут только пользователи прошедшие не сложную регистрацию
    Показать сообщения:    

    Самурай-гурман через торрент
    Скачать бесплатно Самурай-гурман
    Самурай-гурман скачать торрент
    Самурай-гурман смотреть онлайн
    Cкачать фильм Самурай-гурман бесплатно
    Самурай-гурман скачать торрент в хорошем качестве
    Самурай-гурман смотреть онлайн бесплатно в хорошем качестве


    Вы не можете начинать темы
    Вы не можете отвечать на сообщения
    Вы не можете редактировать свои сообщения
    Вы не можете удалять свои сообщения
    Вы не можете голосовать в опросах
    Вы не можете прикреплять файлы к сообщениям
    Вы можете скачивать файлы