1 сезон

1 сезон

iTunes

1

КиноПоиск HD

Кинопоиск HD

iTunes

13

1 сезон

RePack

30

Новинка

ВАЖНО

ИГРА 18+

pack

RePack

MK11
pack

Легкие деньги

RePack

jed

RePack

fifa19

RePack

RDR2

RePack

NEED FOR SPEED™ PAYBACK

4 сезон

9 сезон

Бесстыжие 9 сезон

Все сериалы

все сериалы на PB.wtf

RePack

FAR CRY 5
  
Magnet ссылка

Телефонная будка / Phone Booth (Джоэл Шумахер / Joel Schumacher) [2002 г., триллер, криминал, детектив, WEB-DLRip-AVC, Open Matte] Dub, MVO, AVO [Сербин] - ExKinoRay pb.wtf

Телефонная будка через торрент pb.wtf

Размер: 3.16 GB | Добавлен: 3 года 2 мес. назад | Торрент скачан:39 раз
Скачать  

29-01-2018 21:24 Телефонная будка Скачать торрент  

Информация о фильме
Название: Телефонная будка
Оригинальное название: Phone booth
Год выхода: 2002
Жанр: Психологический триллер, детектив, драма
Режиссер: Джоэл Шумахер
В ролях: Колин Фаррелл, Кифер Сазерленд, Форест Уитакер, Рада Митчелл, Кэти Холмс, Пола Джей Паркер, Ариан Варинг Эш, Тиа Тексада, Джон Инос III, Ричард Т. Джонс, Кит Ноббс, Делл Йонт, Джеймс МакДональд, Джош Пэйс, Йорго Константин, Колин Патрик Линч, Трой Гилберт, Ричард Парадайз, Сет Уильям Мейер, Светлана Ефремова, Билли Эрб, Доменик Ломбардоззи, Мэйл Флэнеган, Том Рейнольдс, Хулио Оскар Мечосо, Карара Мухоро, Зиду Чен, Шу Лан Туан, Дин Кохрэн, Эми Коваллис, Тори Киттлз, Брюс Робертс, Тайри Майкл Симпсон, Дин Таролли, Мэри Рэндл, Пол Фонтана

Описание:
Один телефонный звонок может изменить всю жизнь человека или даже оборвать ее. Герой фильма Стью Шеферд становится пленником телефонной будки. Что вы сделаете, если услышите, как в телефонной будке зазвонил телефон? Скорее всего, инстинктивно поднимете трубку, хотя прекрасно знаете, что кто-то просто ошибся номером. Вот и Стью кажется, что на звонок надо обязательно ответить, а в результате он оказывается втянутым в чудовищную игру. «Только положи трубку, и ты — труп», — говорит ему невидимый собеседник...

rating

Выпущено: США, Fox 2000 Pictures, Zucker-Netter Productions
Продолжительность: 01:21:10
Перевод: Профессиональный (дублированный) CPIG + Профессиональный (многоголосый, закадровый) x2 + Авторский (одноголосый, закадровый) Ю.Сербин

Файл
Кодек: H.264
Качество: WEB-DLRip-AVC
Видео: MPEG-4 AVC, 3464 Кбит/с, 1024x576
Аудио#1: Russian: 48 kHz, AC3, 3/2 (L,C,R,l,r) + LFE ch, ~384 kbps avg |Дубляж, CPIG|
Аудио#2: Russian: 48 kHz, AC3, 3/2 (L,C,R,l,r) + LFE ch, ~384 kbps avg |Многоголосый закадровый|
Аудио#3: Russian: 48 kHz, AC3, 3/2 (L,C,R,l,r) + LFE ch, ~448 kbps avg |Многоголосый закадровый|
Аудио#4: Russian: 48 kHz, AC3, 3/2 (L,C,R,l,r) + LFE ch, ~448 kbps avg |Авторский, Ю.Сербин|
Аудио#5: English: 48 kHz, AC3, 3/2 (L,C,R,l,r) + LFE ch, ~448 kbps avg
Субтитры: Russian, English
General
Unique ID : 173276500537743218125973644791679829813 (0x825BD711156F76E78A7D5C8DC8904735)
Complete name : D:\Phone.Booth.2002.WEB-DLRip.AVC.Open.Mate.ExKinoRay.mkv
Format : Matroska
Format version : Version 2
File size : 3.16 GiB
Duration : 1 h 21 min
Overall bit rate : 5 576 kb/s
Movie name : Phone Booth 2002 Open Matte from ExKinoRay
Encoded date : UTC 2018-01-29 12:40:02
Writing application : mkvmerge v5.6.0 ('Kenya Kane') built on May 27 2012 16:44:04
Writing library : libebml v1.2.3 + libmatroska v1.3.0

Video
ID : 1
Format : AVC
Format/Info : Advanced Video Codec
Format profile : High@L4.1
Format settings, CABAC : Yes
Format settings, ReFrames : 12 frames
Codec ID : V_MPEG4/ISO/AVC
Duration : 1 h 21 min
Bit rate : 3 464 kb/s
Width : 1 024 pixels
Height : 576 pixels
Display aspect ratio : 16:9
Frame rate mode : Constant
Frame rate : 23.976 (23976/1000) FPS
Color space : YUV
Chroma subsampling : 4:2:0
Bit depth : 8 bits
Scan type : Progressive
Bits/(Pixel*Frame) : 0.245
Stream size : 1.90 GiB (60%)
Writing library : x264 core 152 r2851 ba24899
Encoding settings : cabac=1 / ref=12 / deblock=1:-2:-2 / analyse=0x3:0x113 / me=umh / subme=10 / psy=1 / psy_rd=1.00:0.05 / mixed_ref=1 / me_range=32 / chroma_me=1 / trellis=2 / 8x8dct=1 / cqm=0 / deadzone=21,11 / fast_pskip=0 / chroma_qp_offset=-3 / threads=12 / lookahead_threads=3 / sliced_threads=0 / nr=0 / decimate=0 / interlaced=0 / bluray_compat=0 / constrained_intra=0 / bframes=10 / b_pyramid=2 / b_adapt=2 / b_bias=0 / direct=3 / weightb=1 / open_gop=0 / weightp=2 / keyint=240 / keyint_min=23 / scenecut=40 / intra_refresh=0 / rc_lookahead=40 / rc=2pass / mbtree=0 / bitrate=3464 / ratetol=1.0 / qcomp=0.60 / qpmin=0 / qpmax=51 / qpstep=4 / cplxblur=20.0 / qblur=0.5 / vbv_maxrate=50000 / vbv_bufsize=62500 / nal_hrd=none / filler=0 / ip_ratio=1.25 / pb_ratio=1.30 / aq=3:0.90
Language : English
Default : Yes
Forced : No
Color range : Limited
Color primaries : BT.709
Transfer characteristics : BT.709
Matrix coefficients : BT.709

Audio #1
ID : 2
Format : AC-3
Format/Info : Audio Coding 3
Mode extension : CM (complete main)
Format settings, Endianness : Big
Codec ID : A_AC3
Duration : 1 h 21 min
Bit rate mode : Constant
Bit rate : 384 kb/s
Channel(s) : 6 channels
Channel positions : Front: L C R, Side: L R, LFE
Sampling rate : 48.0 kHz
Frame rate : 31.250 FPS (1536 spf)
Compression mode : Lossy
Stream size : 223 MiB (7%)
Title : Dub CPIG
Language : Russian
Default : Yes
Forced : No

Audio #2
ID : 3
Format : AC-3
Format/Info : Audio Coding 3
Mode extension : CM (complete main)
Format settings, Endianness : Big
Codec ID : A_AC3
Duration : 1 h 21 min
Bit rate mode : Constant
Bit rate : 384 kb/s
Channel(s) : 6 channels
Channel positions : Front: L C R, Side: L R, LFE
Sampling rate : 48.0 kHz
Frame rate : 31.250 FPS (1536 spf)
Compression mode : Lossy
Stream size : 223 MiB (7%)
Title : MVO 1
Language : Russian
Default : No
Forced : No

Audio #3
ID : 4
Format : AC-3
Format/Info : Audio Coding 3
Mode extension : CM (complete main)
Format settings, Endianness : Big
Codec ID : A_AC3
Duration : 1 h 21 min
Bit rate mode : Constant
Bit rate : 448 kb/s
Channel(s) : 6 channels
Channel positions : Front: L C R, Side: L R, LFE
Sampling rate : 48.0 kHz
Frame rate : 31.250 FPS (1536 spf)
Compression mode : Lossy
Stream size : 260 MiB (8%)
Title : MVO 2
Language : Russian
Default : No
Forced : No

Audio #4
ID : 5
Format : AC-3
Format/Info : Audio Coding 3
Mode extension : CM (complete main)
Format settings, Endianness : Big
Codec ID : A_AC3
Duration : 1 h 21 min
Bit rate mode : Constant
Bit rate : 448 kb/s
Channel(s) : 6 channels
Channel positions : Front: L C R, Side: L R, LFE
Sampling rate : 48.0 kHz
Frame rate : 31.250 FPS (1536 spf)
Compression mode : Lossy
Stream size : 260 MiB (8%)
Title : AVO (Serbin)
Language : Russian
Default : No
Forced : No

Audio #5
ID : 6
Format : AC-3
Format/Info : Audio Coding 3
Mode extension : CM (complete main)
Format settings, Endianness : Big
Codec ID : A_AC3
Duration : 1 h 21 min
Bit rate mode : Constant
Bit rate : 448 kb/s
Channel(s) : 6 channels
Channel positions : Front: L C R, Side: L R, LFE
Sampling rate : 48.0 kHz
Frame rate : 31.250 FPS (1536 spf)
Compression mode : Lossy
Stream size : 260 MiB (8%)
Language : English
Default : No
Forced : No

Text #1
ID : 7
Format : UTF-8
Codec ID : S_TEXT/UTF8
Codec ID/Info : UTF-8 Plain Text
Language : Russian
Default : No
Forced : No

Text #2
ID : 8
Format : UTF-8
Codec ID : S_TEXT/UTF8
Codec ID/Info : UTF-8 Plain Text
Language : English
Default : No
Forced : No

Menu
00:00:00.000 : en:Studio Logo
00:00:35.000 : en:Opening Credits
00:00:58.000 : en:Prologue; Space and Times Square
00:03:56.000 : en:Stu wheels and deals; Times Square
00:09:03.000 : en:A pizza man interrupts Stu while he makes a call
00:10:37.000 : en:Stu calls Pam and invites her to the City Hotel; Phone booth and restaurant
00:11:59.000 : en:Stu receives a mysterious phone call; Phone booth
00:14:27.000 : en:The Caller rings again and wants Stu to confess to Pam and Kelly
00:22:52.000 : en:The Caller warns Stu of his intentions if he does not obey
00:25:19.000 : en:Leon and the hookers gang up on Stu; Phone booth
00:29:14.000 : en:Stu tries to call for help; Phone booth
00:32:14.000 : en:The police come to arrest Stu; Phone booth and street
00:39:42.000 : en:Reporters arrive to cover the story; City streets and phone booth
00:42:47.000 : en:Kelly arrives and Stu tries to protect her; Phone booth and street
00:49:54.000 : en:Stu tells Kelly about the other woman in his life; Phone booth and street
00:52:21.000 : en:Capt. Ramey suspects Stu is being controlled; Street and phone booth
00:54:25.000 : en: Stu is the patsy for the Leon's death; Phone booth and street
01:00:03.000 : en:Stu bares his heart to Kelly and the public; Phone booth and street
01:08:27.000 : en:Stu takes a stand, ESU moves in on The Caller
01:12:44.000 : en:Epilogue; Ambulance and crime scene
01:15:17.000 : en:End Credits
Релиз от:

Автор релиза: pb.wtf



Скачать Телефонная будка через торрент http://s019.radikal.ru/i644/1710/b2/36c3a5452ac1.jpg Скачать фильм Телефонная будка через торрент бесплантно в хорошем качестве Описание:Один телефонный звонок может изменить всю жизнь человека или даже оборвать ее. Герой фильма Стью Шеферд становится пленником ... 10 10 1
Info! Золотая раздача, скачанное не засчитывается.
Торрент: Зарегистрирован [2018-01-29 21:24] · скачан: 39 раз
Статус: √ проверено
Размер: 3.16 GB
Как cкачать? Как скачать Телефонная будка через торрент | UTorrent

28-11-2019 20:33  

Отключить всю рекламу на сайте

    Дорогой пользователь! Огромная просьба, поблагодарите релизера, оцените раздачу и оставьте свои комментарий, если Вы скачали Телефонная будка через торрент бесплатно! Внесите свою лепту в развитие PiratBit!
    Комментировать посты могут только пользователи прошедшие не сложную регистрацию
    Показать сообщения:    

    Телефонная будка через торрент
    Скачать бесплатно Телефонная будка
    Телефонная будка скачать торрент
    Телефонная будка смотреть онлайн
    Cкачать фильм Телефонная будка бесплатно
    Телефонная будка скачать торрент в хорошем качестве
    Телефонная будка смотреть онлайн бесплатно в хорошем качестве


    Вы не можете начинать темы
    Вы не можете отвечать на сообщения
    Вы не можете редактировать свои сообщения
    Вы не можете удалять свои сообщения
    Вы не можете голосовать в опросах
    Вы не можете прикреплять файлы к сообщениям
    Вы можете скачивать файлы