Ссылка на приватное зеркало нашего сайта всего за 1$. Внимание количество ограничено!!!

2 сезон

iTunes

1 сезон

1

2 сезон

2 сезон

iTunes

1 сезон

RePack

30

Новинка

ВАЖНО

ИГРА 18+

pack

RePack

MK11
pack

Забери бонус

RePack

jed

!!Акция!!

Alien_Rage

RePack

fifa19

RePack

Assassins Creed: Odyssey

RePack

NEED FOR SPEED™ PAYBACK

4 сезон

9 сезон

Бесстыжие 9 сезон

Все сериалы

все сериалы на PB.wtf

RePack

FAR CRY 5
  

Мозаика / Mosaic / Сезон: 1 / Серии: 1-6 из 6 (Стивен Содерберг) [2018, драма, WEB-DLRip] MVO [NewStudio] pb.wtf

Мозаика через торрент pb.wtf

Размер: 3.71 GB | Добавлен: 2 года 4 мес. назад | Торрент скачан:29 раз
Скачать  

30-01-2018 01:29 Мозаика Скачать торрент  

Мозаика / Mosaic
Год выпуска: 2018
Страна: США
Жанр: драма
Продолжительность: ~ 00:50:00
Перевод: Профессиональный многоголосый | скриншот  
Субтитры: Russian (Forced), English | отдельно

Режиссер: Стивен Содерберг

rating

В ролях:

Девин Рэтрей, Майя Кэзан, Джеймс Рэнсон, Зэнди Хартиг, Пол Рубенс, Эллисон Толман, Фред Уэллер, Брэндон Рэй Олив, Джереми Бобб

Описание:

В центре сюжета — история убийства детской писательницы Оливии Лэйк (Шэрон Стоун). При помощи мобильного приложения каждый зритель сможет сам выбрать персонажа, с чьей точки зрения он будет следить за сюжетом. Каждый выбор будет напрямую влиять на развитие сюжета вплоть до различных концовок в зависимости от алгоритма действий зрителя.

Качество: WEB-DLRip
Формат: AVI

Видео: XviD, ~ 1 500 Кбит/с, 720x400
Аудио#1: Русский (MP3, 2 ch, 128 Кбит/с)
Аудио#2: английский (MP3, 2 ch, 128 Кбит/с)


скриншот  скриншот  скриншот  

Общее
Полное имя : D:\Мозаика (сезон 1) Mosaic (2018) WEB-DLRip - NewStudio\Mosaic.S01E01.WEB-DLRip.Rus.Eng.DV.NewStudio.avi
Формат : AVI
Формат/Информация : Audio Video Interleave
Размер файла : 624 Мбайт
Продолжительность : 50 м. 9 с.
Общий поток : 1739 Кбит/сек
Название фильма : Mosaic.S01E01.WEB-DLRip.Rus.Eng.DV.NewStudio / NNM-Club
Программа кодирования : VirtualDubModRus 1.5.10.2 (build 2542/release)
Библиотека кодирования : VirtualDubMod build 2542/release

Видео
Идентификатор : 0
Формат : MPEG-4 Visual
Профиль формата : Advanced Simple@L5
Параметр BVOP формата : 2
Параметр QPel формата : Нет
Параметр GMC формата : Без точки перехода
Параметр матрицы формата : Default (H.263)
Идентификатор кодека : XVID
Идентификатор кодека/Подсказка : XviD
Продолжительность : 50 м. 9 с.
Битрейт : 1469 Кбит/сек
Ширина : 720 пикселей
Высота : 400 пикселей
Соотношение сторон : 16:9
Частота кадров : 23,976 (24000/1001) кадра/сек
Цветовое пространство : YUV
Субдискретизация насыщенности : 4:2:0
Битовая глубина : 8 бит
Тип развёртки : Прогрессивная
Метод сжатия : С потерями
Бит/(Пиксели*Кадры) : 0.213
Размер потока : 527 Мбайт (84%)
Заголовок : Rip by DriverV / NNM-Club
Библиотека кодирования : XviD 67

Аудио #1
Идентификатор : 1
Формат : MPEG Audio
Версия формата : Version 1
Профиль формата : Layer 3
Режим : Joint stereo
Идентификатор кодека : 55
Идентификатор кодека/Подсказка : MP3
Продолжительность : 50 м. 9 с.
Вид битрейта : Постоянный
Битрейт : 128 Кбит/сек
Каналы : 2 канала
Частота : 48,0 КГц
Метод сжатия : С потерями
Размер потока : 45,9 Мбайт (7%)
Выравнивание : Соединение по промежуткам
Продолжительность промежутка : 42 мс. (1,00 видеокадр)
Время предзагрузки промежутка : 504 мс.

Аудио #2
Идентификатор : 2
Формат : MPEG Audio
Версия формата : Version 1
Профиль формата : Layer 3
Режим : Joint stereo
Идентификатор кодека : 55
Идентификатор кодека/Подсказка : MP3
Продолжительность : 50 м. 9 с.
Вид битрейта : Постоянный
Битрейт : 128 Кбит/сек
Каналы : 2 канала
Частота : 48,0 КГц
Метод сжатия : С потерями
Размер потока : 45,9 Мбайт (7%)
Выравнивание : Соединение по промежуткам
Продолжительность промежутка : 42 мс. (1,00 видеокадр)
Время предзагрузки промежутка : 504 мс.

Когда раздача ведётся путём добавления новых серий, при каждом добавлении создётся новый торрент. Чтобы начать докачку новой серии, пользователям необходимо сделать следующее:
(1) остановить скачивание,
(2) удалить старый торрент у себя из клиента (старые серии удалять не надо),
(3) скачать новый торрент и запустить его у себя в клиенте вместо старого, при этом указать клиенту путь в старую папку, куда и должно происходить скачивание новых серий.
Ваш клиент при этом должен произвести хеширование (проверку) старой папки (если не производит сам - помогите ему сделать это), и будет докачивать только те серии, которых у вас ещё нет. Старые серии при этом не удаляются, а продолжают раздаваться!
Eсли вы уже удалили старые серии, то предотвратить повторную закачку старых серий можно, отжав галочку в соответсвующих местах при запуске нового торрента. По возможности, желательно не удалять старые серии как можно дольше, чтобы релизёр не столько продолжал раздавать старые серии, а смог сконцентрироваться на новых.
pb.wtf



Скачать Мозаика через торрент http://i100.fastpic.ru/big/2018/0122/38/aa270cfbdcf6f24ebdc0c7f3d0f4ea38.png Скачать фильм Мозаика через торрент бесплантно в хорошем качестве Описание: В центре сюжета — история убийства детской писательницы Оливии Лэйк (Шэрон Стоун). При помощи мобильного приложения каждый ... 7.3 10 3
Торрент: Зарегистрирован [2018-07-09 07:26] · скачан: 29 раз
Статус: √ проверено
Размер: 3.71 GB
Как cкачать? Как скачать Мозаика через торрент | qTorrent

% Раздел Тема Автор DL S | L
Зарубежные сериалы [ 5.68 GB ] Мозаика / Mosaic / Сезон: 1 / Серии: 1-6 из 6 [2018 WEB-DL 720p] MVO [Amedia] bober100 Скачать
1 | 0
Зарубежные сериалы [ 13.6 GB ] Мозаика / Mosaic / Сезон: 1 / Серии: 1-6 из 6 [2018 WEBRip 1080p] MVO [Jaskier] bober100 Скачать
1 | 0
Зарубежные сериалы [ 5.82 GB ] Мозаика / Mosaic / Сезон: 1 / Серии: 1-6 из 6 [2018 WEBRip 720p] MVO [Jaskier] bober100 Скачать
1 | 0
Зарубежные сериалы [ 3.7 GB ] Мозаика / Mosaic / Сезон: 1 / Серии: 1-6 из 6 [2018 WEBRip] MVO [Jaskier] bober100 Скачать
1 | 0
Зарубежные сериалы [ 6.37 GB ] Мозаика / Mosaic / Сезон: 1 / Серия: 1-6 из 6 [2018 WEB-DL 720p] MVO [AMS] bober100 Скачать
1 | 0
Зарубежные сериалы [ 3.42 GB ] Мозаика / Mosaic / Сезон: 1 / Серии 1-6 из 6 [2018 WEBRip] MVO [BaibaKo] GEKADOL Скачать
1 | 0
Зарубежные сериалы [ 13.05 GB ] Мозаика / Mosaic / Сезон: 1 / Серия: 1-6 из 6 [2018 HDTVRip 1080p] MVO [Амедиа] bober100 Скачать
1 | 0

28-11-2019 20:33  

Отключить всю рекламу на сайте

    Дорогой пользователь! Огромная просьба, поблагодарите релизера, оцените раздачу и оставьте свои комментарий, если Вы скачали Мозаика через торрент бесплатно! Внесите свою лепту в развитие PiratBit!
    Комментировать посты могут только пользователи прошедшие не сложную регистрацию
    Показать сообщения:    

    Мозаика через торрент
    Скачать бесплатно Мозаика
    Мозаика скачать торрент
    Мозаика смотреть онлайн
    Cкачать фильм Мозаика бесплатно
    Мозаика скачать торрент в хорошем качестве
    Мозаика смотреть онлайн бесплатно в хорошем качестве


    Вы не можете начинать темы
    Вы не можете отвечать на сообщения
    Вы не можете редактировать свои сообщения
    Вы не можете удалять свои сообщения
    Вы не можете голосовать в опросах
    Вы не можете прикреплять файлы к сообщениям
    Вы можете скачивать файлы