Ссылка на приватное зеркало нашего сайта всего за 1$. Внимание количество ограничено!!!

2 сезон

iTunes

1 сезон

1

iTunes

iTunes

iTunes

1 сезон

RePack

30

ИГРА 18+

pack

ВАЖНО

!!Акция!!

Alien_RageХит недели

RePack

MK11
pack

Забери бонус

RePack

jed

!!Акция!!

Alien_Rage

RePack

fifa19

RePack

Assassins Creed: Odyssey

RePack

NEED FOR SPEED™ PAYBACK

4 сезон

9 сезон

Бесстыжие 9 сезон

Все сериалы

все сериалы на PB.wtf

RePack

FAR CRY 5
  

Французский поцелуй / French Kiss (Лоуренс Кэсдан) [1995, драма, мелодрама, комедия, BDRip 720p by msltel] MVO, DVO, 2 x AVO pb.wtf

Французский поцелуй через торрент pb.wtf

Размер: 4.9 GB | Добавлен: 2 года 8 мес. назад | Торрент скачан:30 раз
Скачать  

30-01-2018 06:33 Французский поцелуй Скачать торрент  

Название: Французский поцелуй
Оригинальное название: French Kiss
Год выпуска: 1995
Страна: США, Великобритания
Жанр: драма, мелодрама, комедия
Продолжительность: 01:51:13
Перевод: профессиональный многоголосый, профессиональный двухголосый, авторский

Режиссер: Лоуренс Кэсдан
В ролях: Мег Райан, Кевин Клайн, Тимоти Хаттон, Жан Рено, Франсуа Клюзе, Рени Хамфри, Майкл Райли, Элизабет Коммелин, Сьюзан Анбех, Лорен Шпильфогель, Виктор Гарривье, Микель Браун, Луиз Дешам, Клаудио Тодесчини, Джерри Харт, Джоэнна Павлис, Барбара Шульц, Клеман Сибони, Адам Брукс, Филипп Гарнье, Жан Корсо, Майк Джонс, Мари-Кристин Адам, Фаусто Костантино, Доминик Ренье, Инге Офферман, Николас Хоутри, Вольфганг Писсорс, Никола Оберманн, Дороти Пикард, Жан Эллейн

О фильме: Когда её жених Чарли влюбляется в другую, Кейт отправляется на его поиски. В самолёте она знакомится с загадочным очаровательным французом Люком, который оказывается контрабандистом, подложившим ей в сумочку дорогое ожерелье, чтобы пройти таможню. Но Кейт потеряла всё - паспорт, деньги, контрабандное ожерелье, и теперь они вынуждены поневоле продолжить знакомство. Люк, взявшись помочь Кейт вернуть жениха, обучает её чисто французскому искусству обольщения. Очень хорошо усвоив уроки, Кейт возвращает себе Чарли. Но проблема в том, что он ей уже больше не нужен. Ей нужен Люк...



Качество: BDRip 720p
Формат: MKV
Видео: MPEG-4 AVC, 4575 Kбит/с, 1280x542, 23.976 кадр/с
Аудио 1: русский, AC3, 192 kbps, 6 ch, 48 kHz [закадровый многоголосый, Первый канал]
Аудио 2: русский, AC3, 192 kbps, 6 ch, 48 kHz [закадровый двухголосый]
Аудио 3: русский, AC3, 448 kbps, 6 ch, 48 kHz [авторский, Юрий Живов]
Аудио 4: русский, AC3, 448 kbps, 6 ch, 48 kHz [авторский, Пётр Карцев]
Аудио 5: английский, AC3, 448 kbps, 6 ch, 48 kHz [оригинал]
Субтитры: английские
Неименованные главы/чаптеры.
Общее
Уникальный идентификатор : 228524149306940877429038220098811843524 (0xABEC2674981AE8E785C2804D1DA9D3C4)
Полное имя : D:\Video\Французский поцелуй.1995.BDRip.720p by msltel.mkv
Формат : Matroska
Версия формата : Version 4 / Version 2
Размер файла : 4,90 Гбайт
Продолжительность : 1 ч. 51 м.
Общий поток : 6306 Кбит/сек
Название фильма : Rip by msltel
Дата кодирования : UTC 2018-01-29 10:59:28
Программа кодирования : mkvmerge v8.2.0 ('World of Adventure') 64bit
Библиотека кодирования : libebml v1.3.1 + libmatroska v1.4.2

Видео
Идентификатор : 1
Формат : AVC
Формат/Информация : Advanced Video Codec
Профиль формата : High@L4.1
Настройки формата : CABAC / 9 Ref Frames
Параметр CABAC формата : Да
Параметр RefFrames формата : 9 кадров
Идентификатор кодека : V_MPEG4/ISO/AVC
Продолжительность : 1 ч. 51 м.
Битрейт : 4575 Кбит/сек
Ширина : 1280 пикселей
Высота : 542 пикселя
Соотношение сторон : 2,35:1
Режим частоты кадров : Постоянный
Частота кадров : 23,976 (24000/1001) кадра/сек
Цветовое пространство : YUV
Субдискретизация насыщенности : 4:2:0
Битовая глубина : 8 бит
Тип развёртки : Прогрессивная
Бит/(Пиксели*Кадры) : 0.275
Размер потока : 3,55 Гбайт (73%)
Библиотека кодирования : x264 core 146 r2538 121396c
Настройки программы : cabac=1 / ref=9 / deblock=1:-3:-2 / analyse=0x3:0x113 / me=umh / subme=11 / psy=1 / psy_rd=1.00:0.15 / mixed_ref=1 / me_range=32 / chroma_me=1 / trellis=2 / 8x8dct=1 / cqm=0 / deadzone=21,11 / fast_pskip=0 / chroma_qp_offset=-3 / threads=6 / lookahead_threads=1 / sliced_threads=0 / nr=0 / decimate=1 / interlaced=0 / bluray_compat=0 / constrained_intra=0 / bframes=7 / b_pyramid=2 / b_adapt=2 / b_bias=0 / direct=1 / weightb=1 / open_gop=0 / weightp=2 / keyint=230 / keyint_min=23 / scenecut=40 / intra_refresh=0 / rc_lookahead=40 / rc=crf / mbtree=0 / crf=18.0 / qcomp=0.60 / qpmin=0 / qpmax=69 / qpstep=4 / vbv_maxrate=62500 / vbv_bufsize=78125 / crf_max=0.0 / nal_hrd=none / filler=0 / ip_ratio=1.40 / pb_ratio=1.30 / aq=1:1.00
Язык : English
Default : Да
Forced : Нет

Аудио #1
Идентификатор : 2
Формат : AC-3
Формат/Информация : Audio Coding 3
Идентификатор кодека : A_AC3
Продолжительность : 1 ч. 51 м.
Вид битрейта : Постоянный
Битрейт : 192 Кбит/сек
Каналы : 2 канала
Расположение каналов : Front: L R
Частота : 48,0 КГц
Частота кадров : 31,250 кадров/сек (1536 SPF)
Битовая глубина : 16 бит
Метод сжатия : С потерями
Размер потока : 153 Мбайт (3%)
Заголовок : MVO.Первый канал
Язык : Russian
ServiceKind/String : Complete Main
Default : Да
Forced : Нет

Аудио #2
Идентификатор : 3
Формат : AC-3
Формат/Информация : Audio Coding 3
Идентификатор кодека : A_AC3
Продолжительность : 1 ч. 51 м.
Вид битрейта : Постоянный
Битрейт : 192 Кбит/сек
Каналы : 2 канала
Расположение каналов : Front: L R
Частота : 48,0 КГц
Частота кадров : 31,250 кадров/сек (1536 SPF)
Битовая глубина : 16 бит
Метод сжатия : С потерями
Размер потока : 153 Мбайт (3%)
Заголовок : DVO
ServiceKind/String : Complete Main
Default : Нет
Forced : Нет

Аудио #3
Идентификатор : 4
Формат : AC-3
Формат/Информация : Audio Coding 3
Идентификатор кодека : A_AC3
Продолжительность : 1 ч. 51 м.
Вид битрейта : Постоянный
Битрейт : 448 Кбит/сек
Каналы : 6 каналов
Расположение каналов : Front: L C R, Side: L R, LFE
Частота : 48,0 КГц
Частота кадров : 31,250 кадров/сек (1536 SPF)
Битовая глубина : 16 бит
Метод сжатия : С потерями
Размер потока : 356 Мбайт (7%)
Заголовок : Юрий Живов
Язык : Russian
ServiceKind/String : Complete Main
Default : Нет
Forced : Нет

Аудио #4
Идентификатор : 5
Формат : AC-3
Формат/Информация : Audio Coding 3
Идентификатор кодека : A_AC3
Продолжительность : 1 ч. 51 м.
Вид битрейта : Постоянный
Битрейт : 448 Кбит/сек
Каналы : 6 каналов
Расположение каналов : Front: L C R, Side: L R, LFE
Частота : 48,0 КГц
Частота кадров : 31,250 кадров/сек (1536 SPF)
Битовая глубина : 16 бит
Метод сжатия : С потерями
Размер потока : 356 Мбайт (7%)
Заголовок : Пётр Карцев
Язык : Russian
ServiceKind/String : Complete Main
Default : Нет
Forced : Нет

Аудио #5
Идентификатор : 6
Формат : AC-3
Формат/Информация : Audio Coding 3
Идентификатор кодека : A_AC3
Продолжительность : 1 ч. 51 м.
Вид битрейта : Постоянный
Битрейт : 448 Кбит/сек
Каналы : 6 каналов
Расположение каналов : Front: L C R, Side: L R, LFE
Частота : 48,0 КГц
Частота кадров : 31,250 кадров/сек (1536 SPF)
Битовая глубина : 16 бит
Метод сжатия : С потерями
Размер потока : 356 Мбайт (7%)
Заголовок : original
Язык : English
ServiceKind/String : Complete Main
Default : Нет
Forced : Нет

Текст
Идентификатор : 7
Формат : UTF-8
Идентификатор кодека : S_TEXT/UTF8
Идентификатор кодека/Информация : UTF-8 Plain Text
Продолжительность : 1 ч. 50 м.
Битрейт : 60 бит/сек
ElementCount : 2101
Размер потока : 48,7 Кбайт (0%)
Заголовок : английские
Язык : English
Default : Нет
Forced : Нет

Меню
00:00:00.000 : :Chapter 01
00:07:55.641 : :Chapter 02
00:10:00.266 : :Chapter 03
00:15:53.410 : :Chapter 04
00:21:43.844 : :Chapter 05
00:24:15.704 : :Chapter 06
00:30:33.164 : :Chapter 07
00:35:13.152 : :Chapter 08
00:39:37.500 : :Chapter 09
00:44:16.570 : :Chapter 10
00:50:25.147 : :Chapter 11
00:56:33.431 : :Chapter 12
01:01:14.170 : :Chapter 13
01:06:08.296 : :Chapter 14
01:13:22.106 : :Chapter 15
01:17:17.256 : :Chapter 16
01:21:08.280 : :Chapter 17
01:27:26.823 : :Chapter 18
01:34:28.162 : :Chapter 19
01:38:29.278 : :Chapter 20
01:42:53.584 : :Chapter 21
01:44:41.942 : :Chapter 22
01:51:12.791 : :Chapter 23
pb.wtf



Скачать Французский поцелуй через торрент https://c.radikal.ru/c26/1801/89/96f3c836f778.jpg Скачать фильм Французский поцелуй через торрент бесплантно в хорошем качестве О фильме: Когда её жених Чарли влюбляется в другую, Кейт отправляется на его поиски. В самолёте она знакомится с загадочным очаровательным ... 10 10 2
Info! Золотая раздача, скачанное не засчитывается.
Торрент: Зарегистрирован [2018-01-30 06:33] · скачан: 30 раз
Статус: √ проверено
Размер: 4.9 GB
Как cкачать? Как скачать Французский поцелуй через торрент | qTorrent

% Раздел Тема Автор DL S | L
Фильмы [HD 720p, 1080p] (Хороший звук DUB, MVO) [ 13.58 GB ] Французский поцелуй / French Kiss [1995 BDRip 1080p by msltel] MVO DVO 2 x AVO msltel Скачать
1 | 0

28-11-2019 20:33  

Отключить всю рекламу на сайте

30-01-2018 13:41 Французский поцелуй Скачать торрент  

Отличный фильм. Спасибоpb.wtf



    Дорогой пользователь! Огромная просьба, поблагодарите релизера, оцените раздачу и оставьте свои комментарий, если Вы скачали Французский поцелуй через торрент бесплатно! Внесите свою лепту в развитие PiratBit!
    Комментировать посты могут только пользователи прошедшие не сложную регистрацию
    Показать сообщения:    

    Французский поцелуй через торрент
    Скачать бесплатно Французский поцелуй
    Французский поцелуй скачать торрент
    Французский поцелуй смотреть онлайн
    Cкачать фильм Французский поцелуй бесплатно
    Французский поцелуй скачать торрент в хорошем качестве
    Французский поцелуй смотреть онлайн бесплатно в хорошем качестве


    Вы не можете начинать темы
    Вы не можете отвечать на сообщения
    Вы не можете редактировать свои сообщения
    Вы не можете удалять свои сообщения
    Вы не можете голосовать в опросах
    Вы не можете прикреплять файлы к сообщениям
    Вы можете скачивать файлы