Ссылка на приватное зеркало нашего сайта всего за 1$. Внимание количество ограничено!!!

2 сезон

iTunes

1 сезон

1

2 сезон

2 сезон

iTunes

1 сезон

RePack

30

Новинка

ВАЖНО

ИГРА 18+

pack

RePack

MK11
pack

Забери бонус

RePack

jed

!!Акция!!

Alien_Rage

RePack

fifa19

RePack

Assassins Creed: Odyssey

RePack

NEED FOR SPEED™ PAYBACK

4 сезон

9 сезон

Бесстыжие 9 сезон

Все сериалы

все сериалы на PB.wtf

RePack

FAR CRY 5
  

Timo Kotipelto (Stratovarius) - Solo Albums (5) 2002 - 2012/ FLAC/ image +.cue/ lossless/ Heavy, Power Metal pb.wtf

Timo Kotipelto через торрент pb.wtf

Размер: 1.77 GB | Добавлен: 2 года 10 мес. назад | Торрент скачан:5 раз
Скачать  

30-01-2018 10:25 Timo Kotipelto Скачать торрент  


Timo Kotipelto (Stratovarius) - Solo Albums (5)


Год издания: 2002 - 2012
Страна: Finland
Жанр: Heavy, Power Metal
Продолжительность: 03:36:40

Формат: FLAC
Битрейт аудио: Lossless
Тип рипа: image +.cue
Наличие сканов в содержимом раздачи: да

Тимо Антеро Котипелто (Timo Kotipelto) — вокалист финских пауэр-метал групп Stratovarius, Kotipelto и Cain’s Offering. Котипелто обучался вокальному искусству в поп/джаз-консерватории в Хельсинки, некоторое время пел в любительской кавер-группе Filthy Asses.
Тимо Антеро Котипелто
Timo Antero Kotipelto
День рождения: 15.03.1969 года
Возраст: 49 лет
Место рождения: Лаппаярви, Финляндия

Летом 1994 года он обратился в Stratovarius, которые в это время искали солиста, и был принят в группу. Его появление в группе совпало с приходом к группе международной известности. Первым альбомом Stratovarius, в создании которого он принимал участие, стал Fourth Dimension в 1995 году. В конце 2003 года Котипелто покинул Stratovarius после разногласий внутри группы, главным образом с гитаристом Тимо Толкки. После некоторой суматохи в течение 2004 года он воссоединился с группой в январе 2005.Котипелто начал свой сольный проект, названный Kotipelto, в 2002, и выпустил в рамках его три альбома. Также в составе образованной в 2009 году группы Cain's Offening Тимо записал один альбом.Начиная с четвёртого альбома вокал Тимо Котипелто стал своеобразной «визитной карточкой» группы, во многом определившей её «фирменное» звучание. С 2002 года Тимо также выпускает сольные альбомы под собственной маркой Kotipelto. Состав группы варьируется от альбома к альбому.

Лейбл издания: Century Media
Страна-выпуска диска: Germany
Номер по каталогу: 77408-0
Продолжительность: 00:52:20

01. Intro (0:59)
02. Travel Through Time (3:57)
03. Beginning (3:41)
04. Lord Of Eternity (4:04)
05. Knowledge And Wisdom (3:55)
06. Battle Of The Gods (5:06)
07. Beauty Has Come (4:55)
08. Vizier (4:21)
09. Chosen By Ra (7:17)
10. Waiting For The Dawn (5:20)
11. Arise (6:21)
12. The Movement Of The Nile (2:25)

Код:

Exact Audio Copy V0.99 prebeta 5 from 4. May 2009

Отчёт EAC об извлечении, выполненном 10. марта 2011, 16:52

Kotipelto / Waiting For The Dawn

Дисковод: ASUS    DRW-1814BL   Adapter: 4  ID: 1

Режим чтения                 : Достоверность
Использование точного потока : Да
Отключение кэша аудио        : Да
Использование указателей C2  : Нет

Коррекция смещения при чтении                     : 6
Способность читать области Lead-in и Lead-out     : Нет
Заполнение пропущенных сэмплов тишиной            : Да
Удаление блоков с тишиной в начале и конце        : Нет
При вычислениях CRC использовались нулевые сэмплы : Да
Интерфейс                                         : Установленный внешний ASPI-интерфейс

Выходной формат          : Пользовательский кодировщик
Выбранный битрейт        : 1024 kBit/s
Качество                 : Высокий
Добавление ID3-тэга      : Нет
Утилита сжатия           : C:\Program Files\Exact Audio Copy\FLAC\FLAC.EXE
Дополнительные параметры : -6 -V -T "ARTIST=%a" -T "TITLE=%t" -T "ALBUM=%g" -T "DATE=%y" -T "TRACKNUMBER=%n" -T "GENRE=%m" -T "COMMENT=%e" %s -o %d

TOC извлечённого CD

     Трек |   Старт  | Длительность | Начальный сектор | Конечный сектор
    ---------------------------------------------------------------------
       1  |  0:00.00 |    0:59.22   |           0      |       4446
       2  |  0:59.22 |    3:57.08   |        4447      |      22229
       3  |  4:56.30 |    3:41.00   |       22230      |      38804
       4  |  8:37.30 |    4:04.22   |       38805      |      57126
       5  | 12:41.52 |    3:54.63   |       57127      |      74739
       6  | 16:36.40 |    5:05.57   |       74740      |      97671
       7  | 21:42.22 |    4:54.50   |       97672      |     119771
       8  | 26:36.72 |    4:20.63   |      119772      |     139334
       9  | 30:57.60 |    7:16.42   |      139335      |     172076
      10  | 38:14.27 |    5:20.35   |      172077      |     196111
      11  | 43:34.62 |    6:20.53   |      196112      |     224664
      12  | 49:55.40 |    2:24.42   |      224665      |     235506

Характеристики диапазона извлечения и сообщения об ошибках

Выбранный диапазон

     Имя файла G:\Program files\Рипаные файлы\Kotipelto - Waiting For The Dawn\Kotipelto - Waiting For The Dawn.wav

     Пиковый уровень 98.8 %
     Качество диапазона 100.0 %
     CRC копии 8D530293
     Копирование... OK

Ошибок не произошло

Конец отчёта

Код:

REM GENRE "Power Metal"
REM DATE 2002
REM DISCID C80C440C
REM COMMENT "ExactAudioCopy v0.99pb5"
PERFORMER "Kotipelto"
TITLE "Waiting For The Dawn"
FILE "Kotipelto - Waiting For The Dawn.flac" WAVE
  TRACK 01 AUDIO
    TITLE "Intro"
    PERFORMER "Kotipelto"
    ISRC >f0A?0200001
    INDEX 01 00:00:00
  TRACK 02 AUDIO
    TITLE "Travel Through Time"
    PERFORMER "Kotipelto"
    ISRC >f0A?0200002
    INDEX 01 00:59:22
  TRACK 03 AUDIO
    TITLE "Beginning"
    PERFORMER "Kotipelto"
    ISRC >f0A?0200002
    INDEX 01 04:56:30
  TRACK 04 AUDIO
    TITLE "Lord Of Eternity"
    PERFORMER "Kotipelto"
    ISRC >f0A?0200004
    INDEX 01 08:37:30
  TRACK 05 AUDIO
    TITLE "Knowledge And Wisdom"
    PERFORMER "Kotipelto"
    ISRC >f0A?0200004
    INDEX 01 12:41:52
  TRACK 06 AUDIO
    TITLE "Battle Of The Gods"
    PERFORMER "Kotipelto"
    ISRC >f0A?0200006
    INDEX 01 16:36:40
  TRACK 07 AUDIO
    TITLE "Beauty Has Come"
    PERFORMER "Kotipelto"
    ISRC >f0A?0200007
    INDEX 00 21:41:17
    INDEX 01 21:42:22
  TRACK 08 AUDIO
    TITLE "Vizier"
    PERFORMER "Kotipelto"
    ISRC >f0A?0200008
    INDEX 01 26:36:72
  TRACK 09 AUDIO
    TITLE "Chosen By Ra"
    PERFORMER "Kotipelto"
    ISRC >f0A?0200009
    INDEX 01 30:57:60
  TRACK 10 AUDIO
    TITLE "Waiting For The Dawn"
    PERFORMER "Kotipelto"
    ISRC >f0A?0200010
    INDEX 01 38:14:27
  TRACK 11 AUDIO
    TITLE "Arise"
    PERFORMER "Kotipelto"
    ISRC >f0A?0200011
    INDEX 01 43:34:62
  TRACK 12 AUDIO
    TITLE "The Movement Of The Nile"
    PERFORMER "Kotipelto"
    ISRC >f0A?0200012
    INDEX 01 49:55:40


Лейбл издания: Century Media
Страна-выпуска диска: Germany
Номер по каталогу: 77508-2
Продолжительность: 00:42:24

01. Seeds Of Sorrow (4:09)
02. Reasons (3:47)
03. Around (5:24)
04. Can You Hear The Sound (3:22)
05. Snowbound (4:34)
06. Journey Back (3:40)
07. Evening's Fall (3:56)
08. Coldness Of My Mind (3:37)
09. Take Me Away (3:32)
10. Here We Are (6:23)

Код:

Exact Audio Copy V0.99 prebeta 5 from 4. May 2009

Отчёт EAC об извлечении, выполненном 12. января 2011, 7:22

Kotipelto / Coldness (CENTURY MEDIA 77508-2)

Дисковод: TSSTcorpCDDVDW SH-S223B   Adapter: 1  ID: 0

Режим чтения                 : Достоверность
Использование точного потока : Да
Отключение кэша аудио        : Да
Использование указателей C2  : Нет

Коррекция смещения при чтении                     : 6
Способность читать области Lead-in и Lead-out     : Нет
Заполнение пропущенных сэмплов тишиной            : Да
Удаление блоков с тишиной в начале и конце        : Нет
При вычислениях CRC использовались нулевые сэмплы : Да
Интерфейс                                         : Встроенный Win32-интерфейс для Win NT/2000

Выходной формат          : Пользовательский кодировщик
Выбранный битрейт        : 128 kBit/s
Качество                 : Высокий
Добавление ID3-тэга      : Нет
Утилита сжатия           : C:\Program Files\Exact Audio Copy\Flac\flac.exe
Дополнительные параметры : -8 -V -T "ARTIST=%a" -T "TITLE=%t" -T "ALBUM=%g" -T "DATE=%y" -T "TRACKNUMBER=%n" -T "GENRE=%m" -T "COMMENT=EAC FLAC -8" %s

TOC извлечённого CD

     Трек |   Старт  | Длительность | Начальный сектор | Конечный сектор
    ---------------------------------------------------------------------
       1  |  0:00.00 |    4:08.66   |           0      |      18665
       2  |  4:08.66 |    3:47.32   |       18666      |      35722
       3  |  7:56.23 |    5:23.44   |       35723      |      59991
       4  | 13:19.67 |    3:21.43   |       59992      |      75109
       5  | 16:41.35 |    4:34.01   |       75110      |      95660
       6  | 21:15.36 |    3:40.09   |       95661      |     112169
       7  | 24:55.45 |    3:56.28   |      112170      |     129897
       8  | 28:51.73 |    3:37.01   |      129898      |     146173
       9  | 32:28.74 |    3:31.40   |      146174      |     162038
      10  | 36:00.39 |    6:23.10   |      162039      |     190773
      11  | 44:55.49 |   16:03.03   |      202174      |     274401

Характеристики диапазона извлечения и сообщения об ошибках

Выбранный диапазон

     Имя файла E:\АУДИО\LOSSLESS\KOTIPELTO\2004 - Coldness [CENTURY MEDIA 77508-2 GERMANY]\Kotipelto - Coldness (CENTURY MEDIA 77508-2).wav

     Пиковый уровень 100.0 %
     Качество диапазона 100.0 %
     CRC теста 6683DC61
     CRC копии 6683DC61
     Копирование... OK

Ошибок не произошло

AccurateRip: сводка

Трек  1  точное извлечение (доверие 8)  [16EE9152]
Трек  2  точное извлечение (доверие 8)  [84C031D5]
Трек  3  точное извлечение (доверие 8)  [8218EC16]
Трек  4  точное извлечение (доверие 8)  [7BB02F78]
Трек  5  точное извлечение (доверие 8)  [E14DF5E7]
Трек  6  точное извлечение (доверие 8)  [23482760]
Трек  7  точное извлечение (доверие 8)  [74FAFE57]
Трек  8  точное извлечение (доверие 8)  [06FE691C]
Трек  9  точное извлечение (доверие 8)  [86332B53]
Трек 10  точное извлечение (доверие 8)  [FF933E7D]

Все треки извлечены точно

Конец отчёта

Код:

REM GENRE Heavy / Power Metal
REM DATE 2004
REM DISCID 8F0E4A0B
REM COMMENT ExactAudioCopy v0.99pb5
PERFORMER "Kotipelto"
TITLE "Coldness [CENTURY MEDIA / 77508-2 / GERMANY]"
FILE "Kotipelto - Coldness (CENTURY MEDIA 77508-2).flac" WAVE
  TRACK 01 AUDIO
    TITLE "Seeds Of Sorrow"
    INDEX 01 00:00:00
  TRACK 02 AUDIO
    TITLE "Reasons"
    INDEX 01 04:08:66
  TRACK 03 AUDIO
    TITLE "Around"
    INDEX 01 07:56:23
  TRACK 04 AUDIO
    TITLE "Can You Hear The Sound"
    INDEX 01 13:19:67
  TRACK 05 AUDIO
    TITLE "Snowbound"
    INDEX 00 16:38:52
    INDEX 01 16:41:35
  TRACK 06 AUDIO
    TITLE "Journey Back"
    INDEX 01 21:15:36
  TRACK 07 AUDIO
    TITLE "Evening's Fall"
    INDEX 00 24:52:52
    INDEX 01 24:55:45
  TRACK 08 AUDIO
    TITLE "Coldness Of My Mind"
    INDEX 01 28:51:73
  TRACK 09 AUDIO
    TITLE "Take Me Away"
    INDEX 00 32:25:54
    INDEX 01 32:28:74
  TRACK 10 AUDIO
    TITLE "Here We Are"
    INDEX 01 36:00:39


Лейбл издания: Century Media
Страна-выпуска диска: Germany
Номер по каталогу: 77472-3
Продолжительность: 00:12:52

01. Reasons (3:49)
02. Seeds Of Sorrow (4:14)
03. Vizier (Extended Version) (4:49)

Код:

Exact Audio Copy V0.99 prebeta 5 from 4. May 2009

Отчёт EAC об извлечении, выполненном 22. апреля 2010, 17:30

Kotipelto / Reasons (CD Single)

Дисковод: ATAPI   iHAP122   9   Adapter: 0  ID: 1

Режим чтения                 : Достоверность
Использование точного потока : Да
Отключение кэша аудио        : Да
Использование указателей C2  : Нет

Коррекция смещения при чтении                     : 6
Способность читать области Lead-in и Lead-out     : Нет
Заполнение пропущенных сэмплов тишиной            : Да
Удаление блоков с тишиной в начале и конце        : Нет
При вычислениях CRC использовались нулевые сэмплы : Да
Интерфейс                                         : Встроенный Win32-интерфейс для Win NT/2000

Выходной формат : Внутренние WAV-операции
Формат сэмплов  : 44.100 Гц; 16 бит; стерео

TOC извлечённого CD

     Трек |   Старт  | Длительность | Начальный сектор | Конечный сектор
    ---------------------------------------------------------------------
       1  |  0:00.00 |    3:49.01   |           0      |      17175
       2  |  3:49.01 |    4:14.08   |       17176      |      36233
       3  |  8:03.09 |    4:48.51   |       36234      |      57884

Характеристики диапазона извлечения и сообщения об ошибках

Выбранный диапазон

     Имя файла C:\Documents and Settings\Владимир\Рабочий стол\Kotipelto - Reasons (CD Single).wav

     Пиковый уровень 97.7 %
     Качество диапазона 99.9 %
     CRC копии 6FF8983D
     Копирование... OK

Ошибок не произошло

Конец отчёта

Код:

REM GENRE "Metal"
REM DATE 2004
REM DISCID 19030303
REM COMMENT "ExactAudioCopy v0.99pb5"
PERFORMER "Kotipelto"
TITLE "Reasons (CD Single)"
FILE "Kotipelto - Reasons (CD Single).flac" WAVE
  TRACK 01 AUDIO
    TITLE "Reasons"
    PERFORMER "Kotipelto"
    INDEX 01 00:00:00
  TRACK 02 AUDIO
    TITLE "Seeds Of Sorrow"
    PERFORMER "Kotipelto"
    INDEX 00 03:45:64
    INDEX 01 03:49:01
  TRACK 03 AUDIO
    TITLE "Vizier (Extended Version)"
    PERFORMER "Kotipelto"
    INDEX 00 08:01:29
    INDEX 01 08:03:09


Лейбл издания: AFM Rec.
Страна-выпуска диска: Germany
Номер по каталогу: AFM 162-9
Продолжительность: 00:49:00

01. Once Upon A Time (3:21)
02. Sleep Well (4:16)
03. Serenity (3:32)
04. City Of Mysteries (4:20)
05. King Anti-Midas (4:06)
06. Angels Will Cry (3:57)
07. After The Rain (3:54)
08. Mr. Know-It-All (5:19)
09. Dreams And Reality (4:27)
10. Last Defender (8:22)
11. After The Rain (Acoustic Version) (3:26)

Код:

Exact Audio Copy V0.99 prebeta 5 from 4. May 2009

Отчёт EAC об извлечении, выполненном 16. марта 2011, 16:48

Kotipelto / Serenity

Дисковод: ASUS    DRW-1814BL   Adapter: 4  ID: 1

Режим чтения                 : Достоверность
Использование точного потока : Да
Отключение кэша аудио        : Да
Использование указателей C2  : Нет

Коррекция смещения при чтении                     : 6
Способность читать области Lead-in и Lead-out     : Нет
Заполнение пропущенных сэмплов тишиной            : Да
Удаление блоков с тишиной в начале и конце        : Нет
При вычислениях CRC использовались нулевые сэмплы : Да
Интерфейс                                         : Установленный внешний ASPI-интерфейс

Выходной формат          : Пользовательский кодировщик
Выбранный битрейт        : 1024 kBit/s
Качество                 : Высокий
Добавление ID3-тэга      : Нет
Утилита сжатия           : C:\Program Files\Exact Audio Copy\FLAC\FLAC.EXE
Дополнительные параметры : -6 -V -T "ARTIST=%a" -T "TITLE=%t" -T "ALBUM=%g" -T "DATE=%y" -T "TRACKNUMBER=%n" -T "GENRE=%m" -T "COMMENT=%e" %s -o %d

TOC извлечённого CD

     Трек |   Старт  | Длительность | Начальный сектор | Конечный сектор
    ---------------------------------------------------------------------
       1  |  0:00.00 |    3:20.58   |           0      |      15057
       2  |  3:20.58 |    4:15.38   |       15058      |      34220
       3  |  7:36.21 |    3:31.39   |       34221      |      50084
       4  | 11:07.60 |    4:19.57   |       50085      |      69566
       5  | 15:27.42 |    4:06.03   |       69567      |      88019
       6  | 19:33.45 |    3:56.58   |       88020      |     105777
       7  | 23:30.28 |    3:54.21   |      105778      |     123348
       8  | 27:24.49 |    5:19.22   |      123349      |     147295
       9  | 32:43.71 |    4:26.71   |      147296      |     167316
      10  | 37:10.67 |    8:22.35   |      167317      |     205001
      11  | 45:33.27 |    3:26.21   |      205002      |     220472
      12  | 51:31.48 |    4:47.51   |      231873      |     253448

Характеристики диапазона извлечения и сообщения об ошибках

Выбранный диапазон

     Имя файла G:\Program files\Рипаные файлы\Kotipelto - Serenity 2007\Kotipelto - Serenity.wav

     Пиковый уровень 97.7 %
     Качество диапазона 100.0 %
     CRC копии E603CBC0
     Копирование... OK

Ошибок не произошло

Конец отчёта

Код:

REM GENRE Metal
REM DATE 2007
REM DISCID A50D330C
REM COMMENT "ExactAudioCopy v0.99pb5"
PERFORMER "Kotipelto"
TITLE "Serenity"
FILE "Kotipelto - Serenity.flac" WAVE
  TRACK 01 AUDIO
    TITLE "Once Upon A Time"
    PERFORMER "Kotipelto"
    ISRC <c\^00700750
    INDEX 01 00:00:00
  TRACK 02 AUDIO
    TITLE "Sleep Well"
    PERFORMER "Kotipelto"
    ISRC <c\^00700751
    INDEX 00 03:19:46
    INDEX 01 03:20:58
  TRACK 03 AUDIO
    TITLE "Serenity"
    PERFORMER "Kotipelto"
    ISRC <c\^00700752
    INDEX 00 07:34:42
    INDEX 01 07:36:21
  TRACK 04 AUDIO
    TITLE "City Of Mysteries"
    PERFORMER "Kotipelto"
    ISRC <c\^00700753
    INDEX 00 11:05:56
    INDEX 01 11:07:60
  TRACK 05 AUDIO
    TITLE "King Anti-Midas"
    PERFORMER "Kotipelto"
    ISRC <c\^00700754
    INDEX 01 15:27:42
  TRACK 06 AUDIO
    TITLE "Angels Will Cry"
    PERFORMER "Kotipelto"
    ISRC <c\^00700755
    INDEX 01 19:33:45
  TRACK 07 AUDIO
    TITLE "After The Rain"
    PERFORMER "Kotipelto"
    ISRC <c\^00700756
    INDEX 00 23:25:41
    INDEX 01 23:30:28
  TRACK 08 AUDIO
    TITLE "Mr. Know-It-All"
    PERFORMER "Kotipelto"
    ISRC <c\^00700757
    INDEX 01 27:24:49
  TRACK 09 AUDIO
    TITLE "Dreams And Reality"
    PERFORMER "Kotipelto"
    ISRC <c\^00700758
    INDEX 01 32:43:71
  TRACK 10 AUDIO
    TITLE "Last Defender"
    PERFORMER "Kotipelto"
    ISRC <c\^00700759
    INDEX 00 37:06:05
    INDEX 01 37:10:67
  TRACK 11 AUDIO
    TITLE "After The Rain (Acoustic Version)"
    PERFORMER "Kotipelto"
    ISRC <c\^00700760
    INDEX 00 45:27:72
    INDEX 01 45:33:27


Лейбл издания: Студия "Союз"
Страна-выпуска диска: Russia
Номер по каталогу: SZCD 6107-12
Продолжительность: 01:00:04

01. Sleep Well (from Kotipelto solo album) (3:37)
02. Out In The Fields (Gary Moore & Phil Lynott cover) (4:00)
03. Black Diamond (Stratovarius song) (4:09)
04. My Selene (Sonata Arctica song) (4:58)
05. Behind Blue Eyes (Pete Townshend cover) (3:35)
06. Hunting High and Low (Stratovarius song) (4:47)
07. Where My Rainbow Ends (new song, written by Jani) (3:34)
08. Speed of Light (Stratovarius Song) (4:08)
09. Perfect Strangers (Deep Purple/Ian Gillan cover) (4:31)
10. Coming Home (Stratovarius song) (4:05)
11. Serenity (Kotipelto solo) (5:27)
12. Rainbow Eyes (Rainbow cover / Ritchie Blackmore, Ronnie Dio) (6:02)
13. Karjalan Kunnailla (Finnish traditional) (2:39)
14. Beauty Has Come (from Kotipelto solo album) / Hidden track (bonus) (4:31)
Акустический альбом легенд Timo Kotipelto "Stratovarius" и Jani Liimatainen "Sonata Arctica".

Код:

Exact Audio Copy V1.0 beta 2 from 29. April 2011

Отчёт EAC об извлечении, выполненном 16. ноября 2012, 20:11

Kotipelto & Liimatainen / Blackoustic

Дисковод: ASUS    DRW-20B1LT   Adapter: 0  ID: 2

Режим чтения                 : Достоверность
Использование точного потока : Да
Отключение кэша аудио        : Да
Использование указателей C2  : Нет

Коррекция смещения при чтении                     : 6
Способность читать области Lead-in и Lead-out     : Нет
Заполнение пропущенных сэмплов тишиной            : Да
Удаление блоков с тишиной в начале и конце        : Нет
При вычислениях CRC использовались нулевые сэмплы : Да
Интерфейс                                         : Встроенный Win32-интерфейс для Win NT/2000

Выходной формат          : Пользовательский кодировщик
Выбранный битрейт        : 768 kBit/s
Качество                 : Высокий
Добавление ID3-тега      : Нет
Утилита сжатия           : C:\Program Files (x86)\Exact Audio Copy\FLAC\FLAC.EXE
Дополнительные параметры : -6 -V -T "ARTIST=%artist%" -T "TITLE=%title%" -T "ALBUM=%albumtitle%" -T "DATE=%year%" -T "TRACKNUMBER=%tracknr%" -T "GENRE=%genre%" -T "COMMENT=%comment%" -T "BAND=%albuminterpret%" -T "COMPOSER=%composer%" %haslyrics%--tag-from-

TOC извлечённого CD

     Трек |   Старт  | Длительность | Начальный сектор | Конечный сектор
    ---------------------------------------------------------------------
       1  |  0:00.00 |    3:37.25   |           0      |      16299
       2  |  3:37.25 |    4:00.08   |       16300      |      34307
       3  |  7:37.33 |    4:08.72   |       34308      |      52979
       4  | 11:46.30 |    4:57.71   |       52980      |      75325
       5  | 16:44.26 |    3:34.72   |       75326      |      91447
       6  | 20:19.23 |    4:47.29   |       91448      |     113001
       7  | 25:06.52 |    3:33.54   |      113002      |     129030
       8  | 28:40.31 |    4:07.68   |      129031      |     147623
       9  | 32:48.24 |    4:31.36   |      147624      |     167984
      10  | 37:19.60 |    4:05.23   |      167985      |     186382
      11  | 41:25.08 |    5:26.58   |      186383      |     210890
      12  | 46:51.66 |    6:01.67   |      210891      |     238032
      13  | 52:53.58 |    2:39.12   |      238033      |     249969
      14  | 55:32.70 |    4:31.32   |      249970      |     270326

Характеристики диапазона извлечения и сообщения об ошибках

Выбранный диапазон

     Имя файла I:\MU\Kotipelto & Liimatainen -  Blackoustic - 2012\Kotipelto & Liimatainen - Blackoustic.wav

     Пиковый уровень 99.1 %
     Скорость извлечения 8.9 X
     Качество диапазона 100.0 %
     CRC копии 080CBEAF
     Копирование... OK

Ошибок не произошло

AccurateRip: сводка

Трек  1  отсутствует в базе данных
Трек  2  отсутствует в базе данных
Трек  3  отсутствует в базе данных
Трек  4  отсутствует в базе данных
Трек  5  отсутствует в базе данных
Трек  6  отсутствует в базе данных
Трек  7  отсутствует в базе данных
Трек  8  отсутствует в базе данных
Трек  9  отсутствует в базе данных
Трек 10  отсутствует в базе данных
Трек 11  отсутствует в базе данных
Трек 12  отсутствует в базе данных
Трек 13  отсутствует в базе данных
Трек 14  отсутствует в базе данных

Ни одного трека нет в базе AccurateRip

Конец отчёта

Код:

REM GENRE "acoustic power metal"
REM DATE 2012
REM DISCID B00E140E
REM COMMENT "ExactAudioCopy v1.0b2"
PERFORMER "Kotipelto & Liimatainen"
TITLE "Blackoustic"
FILE "Kotipelto & Liimatainen - Blackoustic.flac" WAVE
  TRACK 01 AUDIO
    TITLE "Sleep Well (from Kotipelto solo album)"
    PERFORMER "Kotipelto & Liimatainen"
    INDEX 01 00:00:00
  TRACK 02 AUDIO
    TITLE "Out In The Fields (Gary Moore & Phil Lynott cover)"
    PERFORMER "Kotipelto & Liimatainen"
    INDEX 01 03:37:25
  TRACK 03 AUDIO
    TITLE "Black Diamond (Stratovarius song)"
    PERFORMER "Kotipelto & Liimatainen"
    INDEX 01 07:37:33
  TRACK 04 AUDIO
    TITLE "My Selene (Sonata Arctica song)"
    PERFORMER "Kotipelto & Liimatainen"
    INDEX 01 11:46:30
  TRACK 05 AUDIO
    TITLE "Behind Blue Eyes (Pete Townshend cover)"
    PERFORMER "Kotipelto & Liimatainen"
    INDEX 01 16:44:26
  TRACK 06 AUDIO
    TITLE "Hunting High and Low (Stratovarius song)"
    PERFORMER "Kotipelto & Liimatainen"
    INDEX 01 20:19:23
  TRACK 07 AUDIO
    TITLE "Where My Rainbow Ends (new song, written by Jani)"
    PERFORMER "Kotipelto & Liimatainen"
    INDEX 01 25:06:52
  TRACK 08 AUDIO
    TITLE "Speed of Light (Stratovarius Song)"
    PERFORMER "Kotipelto & Liimatainen"
    INDEX 01 28:40:31
  TRACK 09 AUDIO
    TITLE "Perfect Strangers (Deep Purple/Ian Gillan cover)"
    PERFORMER "Kotipelto & Liimatainen"
    INDEX 01 32:48:24
  TRACK 10 AUDIO
    TITLE "Coming Home (Stratovarius song)"
    PERFORMER "Kotipelto & Liimatainen"
    INDEX 01 37:19:60
  TRACK 11 AUDIO
    TITLE "Serenity (Kotipelto solo)"
    PERFORMER "Kotipelto & Liimatainen"
    INDEX 01 41:25:08
  TRACK 12 AUDIO
    TITLE "Rainbow Eyes (Rainbow cover / Ritchie Blackmore, Ronnie Dio)"
    PERFORMER "Kotipelto & Liimatainen"
    INDEX 01 46:51:66
  TRACK 13 AUDIO
    TITLE "Karjalan Kunnailla (Finnish traditional)"
    PERFORMER "Kotipelto & Liimatainen"
    INDEX 01 52:53:58
  TRACK 14 AUDIO
    TITLE "Beauty Has Come (from Kotipelto solo album) / Hidden track (bonus)"
    PERFORMER "Kotipelto & Liimatainen"
    INDEX 01 55:32:70




pb.wtf



Скачать Timo Kotipelto через торрент http://i102.fastpic.ru/big/2018/0129/83/d4193830b794c723264c780a1ce6a883.png Скачать фильм Timo Kotipelto через торрент бесплантно в хорошем качестве Timo Kotipelto (Stratovarius) - Solo Albums (5) Год издания: 2002 - 2012Страна: Finland Жанр: Heavy, Power MetalПродолжительность: ... 5 10 1
Info! Золотая раздача, скачанное не засчитывается.
Торрент: Зарегистрирован [2018-01-30 10:25] · скачан: 5 раз
Статус: √ проверено
Размер: 1.77 GB
Как cкачать? Как скачать Timo Kotipelto через торрент | qTorrent

28-11-2019 20:33  

Отключить всю рекламу на сайте

    Дорогой пользователь! Огромная просьба, поблагодарите релизера, оцените раздачу и оставьте свои комментарий, если Вы скачали Timo Kotipelto через торрент бесплатно! Внесите свою лепту в развитие PiratBit!
    Комментировать посты могут только пользователи прошедшие не сложную регистрацию
    Показать сообщения:    

    Timo Kotipelto через торрент
    Скачать бесплатно Timo Kotipelto
    Timo Kotipelto скачать торрент
    Timo Kotipelto смотреть онлайн
    Cкачать фильм Timo Kotipelto бесплатно
    Timo Kotipelto скачать торрент в хорошем качестве
    Timo Kotipelto смотреть онлайн бесплатно в хорошем качестве


    Вы не можете начинать темы
    Вы не можете отвечать на сообщения
    Вы не можете редактировать свои сообщения
    Вы не можете удалять свои сообщения
    Вы не можете голосовать в опросах
    Вы не можете прикреплять файлы к сообщениям
    Вы можете скачивать файлы