2 сезон

iTunes

1 сезон

1

iTunes

iTunes

iTunes

1 сезон

RePack

30

ИГРА 18+

pack

ВАЖНО

!!Акция!!

Alien_RageХит недели

RePack

MK11
pack

Забери бонус

RePack

jed

!!Акция!!

Alien_Rage

RePack

fifa19

RePack

Assassins Creed: Odyssey

RePack

NEED FOR SPEED™ PAYBACK

4 сезон

9 сезон

Бесстыжие 9 сезон

Все сериалы

все сериалы на PB.wtf

RePack

FAR CRY 5
  

Копы в глубоком запасе / The Other Guys (Адам МакКей) [2010, боевик, комедия, криминал, BDRip 720p от еnvy / NNNB] Theatrical Cut | DUB pb.wtf

Копы в глубоком запасе через торрент pb.wtf

Раздают: 18 [ 0 KB/s ]
Размер: 4.37 GB | Добавлен: 2 года 9 мес. назад | Торрент скачан:439 раз
Скачать  

30-01-2018 15:00 Копы в глубоком запасе Скачать торрент  

Информация о фильме
Русское название: Копы в глубоком запасе
Оригинальное название: The Other Guys
Год выхода: 2010
Жанр: боевик, комедия, криминал
Режиссер: Адам МакКей
Выпущено: США
Продолжительность: 01:47:27
Перевод: Дублированный
В ролях: Уилл Феррелл, Марк Уолберг, Ева Мендес, Майкл Китон, Роб Риггл, Рэй Стивенсон, Стив Куган, Дэймон Уайанс мл., Сэмюэл Л. Джексон, Дуэйн Джонсон

Описание
Нью-Йоркские детективы Аллен Гэмбл и Терри Хойтз ведут полицейскую бухгалтерию. Гэмблу такая работа в радость, Хойтзу — наказание. Когда напарникам представится шанс выйти из тени — прийти на помощь своим кумирам, детективам Дэнсону и Манцетти — станет ясно, что в бухгалтерию Гэмбла и Хойтза сослали не зря…

Файл
Качество: BDRip 720p (исходник Blu-ray Disc)
Контейнер: MKV (расширение файла)
Видео: 1280x534, 4544 Кбит/сек, 23,976 кадр/сек, AVC, x264, High@L4.1, 2.40:1, 0.277 Бит/[Пиксели*Кадры]
Аудио 1: AC-3, 640 Кбит/сек, 6 канала(ов), 48,0 КГц - Дублированный / Русский
Аудио 2: AC-3, 640 Кбит/сек, 6 канала(ов), 48,0 КГц - Оригинал / Английский
Субтитры: Английские | Полные
Форсированные субтитры: Нет
Чаптеры (Главы): Есть



Автор Рипа: Группа:
скриншот   скриншот   скриншот  
Format : Matroska
Format version : Version 2
File size : 4.37 GiB
Duration : 1 h 47 min
Overall bit rate : 5 827 kb/s
Movie name : The Other Guys.(2010).BDRip.720p.Theatrical.Cut.[envy]
Encoded date : UTC 2018-01-28 09:16:09
Writing application : mkvmerge v5.8.0 ('No Sleep / Pillow') built on Sep 2 2012 15:37:04
Writing library : libebml v1.2.3 + libmatroska v1.3.0

Video
ID : 1
Format : AVC
Format/Info : Advanced Video Codec
Format profile : High@L4.1
Format settings : CABAC / 11 Ref Frames
Format settings, CABAC : Yes
Format settings, ReFrames : 11 frames
Codec ID : V_MPEG4/ISO/AVC
Duration : 1 h 47 min
Bit rate : 4 544 kb/s
Width : 1 280 pixels
Height : 534 pixels
Display aspect ratio : 2.40:1
Frame rate mode : Constant
Frame rate : 23.976 (24000/1001) FPS
Color space : YUV
Chroma subsampling : 4:2:0
Bit depth : 8 bits
Scan type : Progressive
Bits/(Pixel*Frame) : 0.277
Stream size : 3.33 GiB (76%)
Title : The Other Guys.(2010).BDRip.720p.Theatrical.Cut.[envy]
Writing library : x264 core 152 r2851 ba24899
Encoding settings : cabac=1 / ref=11 / deblock=1:-3:-3 / analyse=0x3:0x113 / me=umh / subme=11 / psy=1 / psy_rd=1.00:0.00 / mixed_ref=1 / me_range=32 / chroma_me=1 / trellis=2 / 8x8dct=1 / cqm=0 / deadzone=21,11 / fast_pskip=0 / chroma_qp_offset=-2 / threads=12 / lookahead_threads=1 / sliced_threads=0 / nr=0 / decimate=1 / interlaced=0 / bluray_compat=0 / constrained_intra=0 / bframes=5 / b_pyramid=2 / b_adapt=2 / b_bias=0 / direct=3 / weightb=1 / open_gop=0 / weightp=2 / keyint=240 / keyint_min=23 / scenecut=40 / intra_refresh=0 / rc=2pass / mbtree=0 / bitrate=4544 / ratetol=1.0 / qcomp=0.60 / qpmin=0 / qpmax=69 / qpstep=4 / cplxblur=20.0 / qblur=0.5 / ip_ratio=1.40 / pb_ratio=1.30 / aq=1:0.80
Language : English
Default : Yes
Forced : No

Audio #1
ID : 2
Format : AC-3
Format/Info : Audio Coding 3
Codec ID : A_AC3
Duration : 1 h 47 min
Bit rate mode : Constant
Bit rate : 640 kb/s
Channel(s) : 6 channels
Channel positions : Front: L C R, Side: L R, LFE
Sampling rate : 48.0 kHz
Frame rate : 31.250 FPS (1536 SPF)
Bit depth : 16 bits
Compression mode : Lossy
Stream size : 492 MiB (11%)
Title : Dub
Language : Russian
Service kind : Complete Main
Default : Yes
Forced : No

Audio #2
ID : 3
Format : AC-3
Format/Info : Audio Coding 3
Codec ID : A_AC3
Duration : 1 h 47 min
Bit rate mode : Constant
Bit rate : 640 kb/s
Channel(s) : 6 channels
Channel positions : Front: L C R, Side: L R, LFE
Sampling rate : 48.0 kHz
Frame rate : 31.250 FPS (1536 SPF)
Bit depth : 16 bits
Compression mode : Lossy
Stream size : 492 MiB (11%)
Title : Eng
Language : English
Service kind : Complete Main
Default : No
Forced : No

Text
ID : 4
Format : UTF-8
Codec ID : S_TEXT/UTF8
Codec ID/Info : UTF-8 Plain Text
Title : Eng full
Language : English
Default : No
Forced : No

Menu
00:00:00.000 : :Chapter 01
00:09:15.805 : :Chapter 02
00:13:24.595 : :Chapter 03
00:18:59.137 : :Chapter 04
00:26:06.731 : :Chapter 05
00:31:09.325 : :Chapter 06
00:35:42.765 : :Chapter 07
00:41:16.974 : :Chapter 08
00:48:16.309 : :Chapter 09
00:55:32.620 : :Chapter 10
01:01:22.428 : :Chapter 11
01:09:32.001 : :Chapter 12
01:17:23.013 : :Chapter 13
01:23:43.560 : :Chapter 14
01:30:27.880 : :Chapter 15
01:36:43.380 : :Chapter 16
pb.wtf



Скачать Копы в глубоком запасе через торрент http://img12.lostpic.net/2018/01/30/632bd8cec832119803cd0a72161c0d06.png Скачать фильм Копы в глубоком запасе через торрент бесплантно в хорошем качестве ОписаниеНью-Йоркские детективы Аллен Гэмбл и Терри Хойтз ведут полицейскую бухгалтерию. Гэмблу такая работа в радость, Хойтзу — наказание. ... 10 10 13
Info! Золотая раздача, скачанное не засчитывается.
Торрент: Зарегистрирован [2018-01-30 15:00] · скачан: 439 раз
Статус: √ проверено
Размер: 4.37 GB
Как cкачать? Как скачать Копы в глубоком запасе через торрент | qTorrent

28-11-2019 20:33  

Отключить всю рекламу на сайте

30-01-2018 16:00 Копы в глубоком запасе Скачать торрент  

еnvy, Спасибо! pb.wtf



30-01-2018 20:35 Копы в глубоком запасе Скачать торрент  

Крутой фильмаш.... pb.wtf



    Дорогой пользователь! Огромная просьба, поблагодарите релизера, оцените раздачу и оставьте свои комментарий, если Вы скачали Копы в глубоком запасе через торрент бесплатно! Внесите свою лепту в развитие PiratBit!
    Комментировать посты могут только пользователи прошедшие не сложную регистрацию
    Показать сообщения:    

    Копы в глубоком запасе через торрент
    Скачать бесплатно Копы в глубоком запасе
    Копы в глубоком запасе скачать торрент
    Копы в глубоком запасе смотреть онлайн
    Cкачать фильм Копы в глубоком запасе бесплатно
    Копы в глубоком запасе скачать торрент в хорошем качестве
    Копы в глубоком запасе смотреть онлайн бесплатно в хорошем качестве


    Вы не можете начинать темы
    Вы не можете отвечать на сообщения
    Вы не можете редактировать свои сообщения
    Вы не можете удалять свои сообщения
    Вы не можете голосовать в опросах
    Вы не можете прикреплять файлы к сообщениям
    Вы можете скачивать файлы