Ссылка на приватное зеркало нашего сайта всего за 1$. Внимание количество ограничено!!!

2 сезон

iTunes

1 сезон

1

2 сезон

2 сезон

iTunes

1 сезон

RePack

30

Ultimate

ВАЖНО

ИГРА 18+

pack

RePack

MK11
pack

Забери бонус

RePack

jed

!!Акция!!

Alien_Rage

RePack

fifa19

RePack

Assassins Creed: Odyssey

RePack

NEED FOR SPEED™ PAYBACK

4 сезон

9 сезон

Бесстыжие 9 сезон

Все сериалы

все сериалы на PB.wtf

RePack

FAR CRY 5
  

Прежде чем я усну / Before I Go to Sleep (Роуэн Жоффе) [2014, Триллер, детектив, драма, BD Remux 1080p] DUB [Лицензия] pb.wtf

Прежде чем я усну через торрент pb.wtf

Размер: 22.26 GB | Добавлен: 2 года 10 мес. назад | Торрент скачан:18 раз
Скачать  

30-01-2018 15:49 Прежде чем я усну Скачать торрент  

Прежде чем я усну / Before I Go to SleepГод выпуска: 2014
Страна: Великобритания, Франция, Швеция
Жанр: Триллер, детектив, драма
Продолжительность: 01:31:52
Перевод: Дубляж - [Лицензия]
Субтитры: английские

Режиссер: Роуэн Жоффе

rating

В ролях:

Николь Кидман, Колин Фёрт, Марк Стронг, Бен Кромптон, Энн-Мэри Дафф, Адам Леви, Гэбриел Стронг, Флинн МакАртур, Дин-Чарльз Чепмен, Ханна Блэмайерс

Описание:

История о женщине, потерявшей память: каждое утро последние двадцать лет просто исчезают из ее воспоминаний, и каждое утро ей приходится по крупицам восстанавливать собственную жизнь.

Качество: BD Remux 1080p
Формат: MKV

Видео: MPEG-4 AVC, 29978 Кбит/с, 1920x1080, 24.000 кадр/с
Аудио#1: Русский (DTS, 6 ch, 1509 Кбит/с)
Аудио#2: английский (DTS-HD MA, 6 ch, 2979 Кбит/с)
Аудио#3: английский (AC3, 2 ch, 224 Кбит/с)
скриншот   скриншот   скриншот  скриншот   скриншот   скриншот  

Полное имя : E:Раздачи_EBefore.I.Go.to.Sleep.2014.BDRemux.1080p.NovaLan.mkv
Формат : Matroska
Версия формата : Version 4 / Version 2
Размер файла : 22,3 Гбайт
Продолжительность : 1 ч. 31 м.
Режим общего битрейта : Переменный
Общий поток : 34,7 Мбит/сек
Название фильма : Before I Go to Sleep 2014 - NovaLan
Дата кодирования : UTC 2015-01-07 17:51:58
Программа кодирования : mkvmerge v7.5.0 ('Glass Culture') 64bit built on Jan 4 2015 16:48:44
Библиотека кодирования : libebml v1.3.1 + libmatroska v1.4.2
DURATION : 01:23:04.207000000
NUMBER_OF_FRAMES : 872
NUMBER_OF_BYTES : 27165
_STATISTICS_WRITING_APP : mkvmerge v7.5.0 ('Glass Culture') 64bit built on Jan 4 2015 16:48:44
_STATISTICS_WRITING_DATE_UTC : 2015-01-07 17:51:58
_STATISTICS_TAGS : BPS DURATION NUMBER_OF_FRAMES NUMBER_OF_BYTES

Видео
Идентификатор : 1
Формат : AVC
Формат/Информация : Advanced Video Codec
Профиль формата : High@L4.1
Параметр CABAC формата : Да
Параметр ReFrames формата : 3 кадра
Идентификатор кодека : V_MPEG4/ISO/AVC
Продолжительность : 1 ч. 31 м.
Вид битрейта : Переменный
Битрейт : 30,3 Мбит/сек
Максимальный битрейт : 35,0 Мбит/сек
Ширина : 1920 пикселей
Высота : 1080 пикселей
Соотношение сторон : 16:9
Частота кадров : 24,000 кадра/сек
Стандарт вещания : NTSC
Цветовое пространство : YUV
Субдискретизация насыщенности : 4:2:0
Битовая глубина : 8 бит
Тип развёртки : Прогрессивная
Бит/(Пиксели*Кадры) : 0.610
Размер потока : 19,5 Гбайт (88%)
Заголовок : Before I Go to Sleep 2014 - NovaLan
Default : Да
Forced : Нет
Основные цвета : BT.709-5, BT.1361, IEC 61966-2-4, SMPTE RP177
Характеристики трансфера : BT.709-5, BT.1361
Коэффициенты матрицы : BT.709-5, BT.1361, IEC 61966-2-4 709, SMPTE RP177

Аудио #1
Идентификатор : 2
Формат : DTS
Формат/Информация : Digital Theater Systems
Идентификатор кодека : A_DTS
Продолжительность : 1 ч. 31 м.
Вид битрейта : Постоянный
Битрейт : 1510 Кбит/сек
Каналы : 6 каналов
Расположение каналов : Front: L C R, Side: L R, LFE
Частота : 48,0 КГц
Битовая глубина : 24 бит
Метод сжатия : С потерями
Размер потока : 993 Мбайт (4%)
Язык : Russian
Default : Да
Forced : Нет

Аудио #2
Идентификатор : 3
Формат : DTS
Формат/Информация : Digital Theater Systems
Профиль формата : MA / Core
Идентификатор кодека : A_DTS
Продолжительность : 1 ч. 31 м.
Вид битрейта : Переменный
Битрейт : 1886 Кбит/сек / 755 Кбит/сек
Каналы : 6 каналов
Расположение каналов : Front: L C R, Side: L R, LFE
Частота : 48,0 КГц
Битовая глубина : 24 бит
Метод сжатия : Без потерь / Lossy
Язык : English
Default : Нет
Forced : Нет

Аудио #3
Идентификатор : 4
Формат : AC-3
Формат/Информация : Audio Coding 3
Расширение режима : CM (complete main)
Параметр Endianness формата : Big
Идентификатор кодека : A_AC3
Продолжительность : 1 ч. 31 м.
Вид битрейта : Постоянный
Битрейт : 224 Кбит/сек
Каналы : 2 канала
Расположение каналов : Front: L R
Частота : 48,0 КГц
Битовая глубина : 16 бит
Метод сжатия : С потерями
Размер потока : 147 Мбайт (1%)
Язык : English
Default : Нет
Forced : Нет

Текст
Идентификатор : 5
Формат : UTF-8
Идентификатор кодека : S_TEXT/UTF8
Идентификатор кодека/Информация : UTF-8 Plain Text
Язык : English
Default : Нет
Forced : Нет

Меню
00:00:00.000 : en:Chapter 1
00:08:30.500 : en:Chapter 2
00:14:14.458 : en:Chapter 3
00:21:55.541 : en:Chapter 4
00:28:16.458 : en:Chapter 5
00:34:40.083 : en:Chapter 6
00:41:49.041 : en:Chapter 7
00:49:32.875 : en:Chapter 8
00:57:15.541 : en:Chapter 9
01:04:23.333 : en:Chapter 10
01:09:27.457 : en:Chapter 11
01:18:11.250 : en:Chapter 12

pb.wtf



Скачать Прежде чем я усну через торрент http://i76.fastpic.ru/big/2015/1102/c6/5f743c58708086ccd7ca65d953b95bc6.jpg Скачать фильм Прежде чем я усну через торрент бесплантно в хорошем качестве Описание: История о женщине, потерявшей память: каждое утро последние двадцать лет просто исчезают из ее воспоминаний, и каждое утро ей ... 10 10 3
Торрент: Зарегистрирован [2018-01-30 15:49] · скачан: 18 раз
Статус: √ проверено
Размер: 22.26 GB
Как cкачать? Как скачать Прежде чем я усну через торрент | qTorrent

% Раздел Тема Автор DL S | L
Фильмы 2014 [DVDrip, WEB-DLRip, HDrip] [ 1.44 GB ] Прежде чем я усну / Before I Go to Sleep [2014 BDRip-AVC ] _denis_100 Скачать
2 | 0
Фильмы [HD 720p, 1080p] (Хороший звук DUB, MVO) [ 9.25 GB ] Прежде чем я усну / Before I Go to Sleep [2014 BDRip 1080p Dub ] Seedtank Скачать
1 | 0
Фильмы 2014 [DVDrip, WEB-DLRip, HDrip] [ 1.46 GB ] Прежде чем я усну / Before I Go to Sleep [2014 HDRip] DUB Ворон Скачать
1 | 1
Фильмы 2014 [DVDrip, WEB-DLRip, HDrip] [ 1.36 GB ] Прежде чем я усну / Before I Go to Sleep [2014 Швеция WEB-DLRip - / ] _KaisiK_ Скачать
1 | 0
Фильмы (DVD фильмы) [ 4.2 GB ] Прежде чем я усну / Before I Go to Sleep [2014 DVD5] R5 voovaz Скачать
1 | 0
Фильмы [HD 720p, 1080p] (Хороший звук DUB, MVO) [ 3.37 GB ] Прежде чем я усну / Before I Go to Sleep BDRip [2014 BDRip 720p] DUB potroks Скачать
1 | 0
Фильмы [HD 720p, 1080p] (Хороший звук DUB, MVO) [ 5.76 GB ] Прежде чем я усну / Before I Go to Sleep [2014 BDRip 1080p ] _denis_100 Скачать
3 | 0

28-11-2019 20:33  

Отключить всю рекламу на сайте

    Дорогой пользователь! Огромная просьба, поблагодарите релизера, оцените раздачу и оставьте свои комментарий, если Вы скачали Прежде чем я усну через торрент бесплатно! Внесите свою лепту в развитие PiratBit!
    Комментировать посты могут только пользователи прошедшие не сложную регистрацию
    Показать сообщения:    

    Прежде чем я усну через торрент
    Скачать бесплатно Прежде чем я усну
    Прежде чем я усну скачать торрент
    Прежде чем я усну смотреть онлайн
    Cкачать фильм Прежде чем я усну бесплатно
    Прежде чем я усну скачать торрент в хорошем качестве
    Прежде чем я усну смотреть онлайн бесплатно в хорошем качестве


    Вы не можете начинать темы
    Вы не можете отвечать на сообщения
    Вы не можете редактировать свои сообщения
    Вы не можете удалять свои сообщения
    Вы не можете голосовать в опросах
    Вы не можете прикреплять файлы к сообщениям
    Вы можете скачивать файлы