2 сезон

iTunes

MVO

1

2 сезон

iTunes

iTunes

1 сезон

RePack

30

Новинка

ВАЖНО

ИГРА 18+

pack

RePack

MK11
pack

Легкие деньги

RePack

jed

RePack

fifa19

RePack

RDR2

RePack

NEED FOR SPEED™ PAYBACK

4 сезон

9 сезон

Бесстыжие 9 сезон

Все сериалы

все сериалы на PB.wtf

RePack

FAR CRY 5

Anonymous, добрый вечер, мы не успеваем собрать деньги на оплату серверов за декабрь и январь, помогите нам пожалуйста в это трудное время. В качестве благодарности мы отключим Вам всю рекламу на сайте (укажите свой ник в строку Ваше имя)!

×
  
Magnet ссылка

Джунгли / Jungle (Грег МакЛин) [2017, Триллер, драма, приключения, BDRip-AVC] DUB [Лицензия] +AVO [М.Яроцкий] pb.wtf

Джунгли через торрент pb.wtf

Размер: 2.77 GB | Добавлен: 2 года 11 мес. назад | Торрент скачан:146 раз
Скачать  

30-01-2018 21:11 Джунгли Скачать торрент  

Джунгли / JungleГод выпуска: 2017
Страна: Австралия, Колумбия
Жанр: Триллер, драма, приключения
Продолжительность: 01:55:22
Перевод: Дубляж [Лицензия], Авторский одноголосый (М.Яроцкий)
Субтитры: Русские

Режиссер: Грег МакЛин

rating

В ролях:

Дэниэл Рэдклифф, Томас Кречман, Алекс Расселл, Джоэль Джексон, Лили Салливан, Ясмин Кассим, Яцек Коман, Луис Лопез, Энджи Милликен, Пэрис Молетти

Описание:

В основу сюжета легли мемуары золотоискателя Йосси Гинзберга (Дэниэл Рэдклифф) под названием «Джунгли: Душераздирающая правдивая история выживания», рассказывающие о его путешествии в тропические леса Амазонии. В 1981 году молодой Йосси три недели блуждал по боливийской части амазонских джунглей с двумя своими друзьями, американцем и швейцарцем, и проводником-австрийцем, назвавшимся геологом и пообещавшим отвести Гинзберга «туда, где золото» – в глухую амазонскую деревушку. Однако во время пути экспедиция раскололась: двое погибли, американца Кевина подобрало местное племя, а Гинзберг выжил после падения с водопада и две недели бродил по джунглям, питаясь ягодами и улитками, пока его не обнаружили индейцы

Качество: BDRip-AVC
Формат: MKV

Видео: 1024x426 (2.40:1), 23,976 fps, x264 ~2152 kbps avg, 0.206 bit/pixel
Аудио#1: 48 kHz, AC3 Dolby Digital, 3/2 (L,C,R,l,r) + LFE ch, ~448.00 kbps avg | RUS (Лицензия)
Аудио#2: 48 kHz, AC3 Dolby Digital, 3/2 (L,C,R,l,r) + LFE ch, ~384.00 kbps avg | RUS (AVO)
Аудио#3: 48 kHz, AC3 Dolby Digital, 3/2 (L,C,R,l,r) + LFE ch, ~448.00 kbps avg | ENG
скриншот   скриншот   скриншот   скриншот   скриншот   скриншот  

Общее
Уникальный идентификатор : 238238149070432351845244286080747749938 (0xB33AFF9EF12BC0E8A7C0115B8CFEC232)
Полное имя : D:ЗагрузкиJungle.2017.BDRip(AVC).OlLanDGroup.mkv
Формат : Matroska
Версия формата : Version 4 / Version 2
Размер файла : 2,77 Гбайт
Продолжительность : 1 ч. 55 м.
Общий поток : 3434 Кбит/сек
Название фильма : Jungle.2017 #TorpedoUK#
Дата кодирования : UTC 2018-01-30 20:52:35
Программа кодирования : mkvmerge v6.5.0 ('Isn't she lovely') built on Oct 20 2013 12:50:05
Библиотека кодирования : libebml v1.3.0 + libmatroska v1.4.1

Видео
Идентификатор : 1
Формат : AVC
Формат/Информация : Advanced Video Codec
Профиль формата : High@L4.1
Параметр CABAC формата : Да
Параметр ReFrames формата : 10 кадров
Идентификатор кодека : V_MPEG4/ISO/AVC
Продолжительность : 1 ч. 55 м.
Битрейт : 2152 Кбит/сек
Ширина : 1024 пикселя
Высота : 426 пикселей
Соотношение сторон : 2,40:1
Режим частоты кадров : Постоянный
Частота кадров : 23,976 (24000/1001) кадра/сек
Цветовое пространство : YUV
Субдискретизация насыщенности : 4:2:0
Битовая глубина : 8 бит
Тип развёртки : Прогрессивная
Бит/(Пиксели*Кадры) : 0.206
Размер потока : 1,68 Гбайт (61%)
Библиотека кодирования : x264 core 146 r2538 121396c
Настройки программы : cabac=1 / ref=10 / deblock=1:-3:-3 / analyse=0x3:0x133 / me=umh / subme=11 / psy=1 / psy_rd=1.00:0.05 / mixed_ref=1 / me_range=48 / chroma_me=1 / trellis=2 / 8x8dct=1 / cqm=0 / deadzone=21,11 / fast_pskip=1 / chroma_qp_offset=-3 / threads=6 / lookahead_threads=1 / sliced_threads=0 / nr=0 / decimate=1 / interlaced=0 / bluray_compat=0 / constrained_intra=0 / bframes=10 / b_pyramid=2 / b_adapt=2 / b_bias=0 / direct=3 / weightb=1 / open_gop=0 / weightp=2 / keyint=240 / keyint_min=23 / scenecut=40 / intra_refresh=0 / rc_lookahead=40 / rc=2pass / mbtree=0 / bitrate=2152 / ratetol=1.0 / qcomp=0.60 / qpmin=0 / qpmax=69 / qpstep=4 / cplxblur=20.0 / qblur=0.5 / vbv_maxrate=50000 / vbv_bufsize=62500 / nal_hrd=none / filler=0 / ip_ratio=1.40 / pb_ratio=1.30 / aq=1:1.00
Язык : English
Default : Да
Forced : Нет

Аудио #1
Идентификатор : 2
Формат : AC-3
Формат/Информация : Audio Coding 3
Расширение режима : CM (complete main)
Параметр Endianness формата : Big
Идентификатор кодека : A_AC3
Продолжительность : 1 ч. 55 м.
Вид битрейта : Постоянный
Битрейт : 448 Кбит/сек
Каналы : 6 каналов
Расположение каналов : Front: L C R, Side: L R, LFE
Частота : 48,0 КГц
Частота кадров : 31,250 кадров/сек (1536 spf)
Метод сжатия : С потерями
Размер потока : 370 Мбайт (13%)
Заголовок : Дублированный (Лицензия)
Язык : Russian
Default : Да
Forced : Нет

Аудио #2
Идентификатор : 3
Формат : AC-3
Формат/Информация : Audio Coding 3
Расширение режима : CM (complete main)
Параметр Endianness формата : Big
Идентификатор кодека : A_AC3
Продолжительность : 1 ч. 55 м.
Вид битрейта : Постоянный
Битрейт : 384 Кбит/сек
Каналы : 6 каналов
Расположение каналов : Front: L C R, Side: L R, LFE
Частота : 48,0 КГц
Частота кадров : 31,250 кадров/сек (1536 spf)
Метод сжатия : С потерями
Размер потока : 317 Мбайт (11%)
Заголовок : AVO
Язык : Russian
Default : Нет
Forced : Нет

Аудио #3
Идентификатор : 4
Формат : AC-3
Формат/Информация : Audio Coding 3
Расширение режима : CM (complete main)
Параметр Endianness формата : Big
Идентификатор кодека : A_AC3
Продолжительность : 1 ч. 55 м.
Вид битрейта : Постоянный
Битрейт : 448 Кбит/сек
Каналы : 6 каналов
Расположение каналов : Front: L C R, Side: L R, LFE
Частота : 48,0 КГц
Частота кадров : 31,250 кадров/сек (1536 spf)
Метод сжатия : С потерями
Размер потока : 370 Мбайт (13%)
Заголовок : Original
Язык : English
Default : Нет
Forced : Нет

Текст #1
Идентификатор : 5
Формат : UTF-8
Идентификатор кодека : S_TEXT/UTF8
Идентификатор кодека/Информация : UTF-8 Plain Text
Заголовок : Full
Язык : Russian
Default : Нет
Forced : Нет

Текст #2
Идентификатор : 6
Формат : UTF-8
Идентификатор кодека : S_TEXT/UTF8
Идентификатор кодека/Информация : UTF-8 Plain Text
Заголовок : Full
Язык : Russian
Default : Нет
Forced : Нет

Меню
00:00:00.000 : en:00:00:00.000
00:09:58.848 : en:00:09:58.848
00:19:46.602 : en:00:19:46.602
00:29:15.379 : en:00:29:15.379
00:38:54.415 : en:00:38:54.415
00:49:27.131 : en:00:49:27.131
00:58:30.507 : en:00:58:30.507
01:07:49.691 : en:01:07:49.691
01:16:25.331 : en:01:16:25.331
01:24:54.464 : en:01:24:54.464
01:32:54.611 : en:01:32:54.611
01:44:37.438 : en:01:44:37.438

pb.wtf



Скачать Джунгли через торрент http://lostpix.com/img/2017-12/04/13eq2jvdhjumjvn0bwjtkpntn.jpg Скачать фильм Джунгли через торрент бесплантно в хорошем качестве Описание: В основу сюжета легли мемуары золотоискателя Йосси Гинзберга (Дэниэл Рэдклифф) под названием «Джунгли: Душераздирающая правдивая ... 10 10 5
Торрент: Зарегистрирован [2018-01-30 21:11] · скачан: 146 раз
Статус: √ проверено
Размер: 2.77 GB
Как cкачать? Как скачать Джунгли через торрент | UTorrent

% Раздел Тема Автор DL S | L
Фильмы 2018 [DVDrip, WEB-DLRip, HDrip] (DUB, MVO) [ 1.46 GB ] Маугли: Легенда джунглей / Mowgli: Legend of the Jungle [2018 экранизация WEB-DLRip] - [Пифагор] Twi7ter Скачать
5 | 0
Фильмы 2018 [DVDrip, WEB-DLRip, HDrip] (DUB, MVO) [ 745 MB ] Маугли: Легенда джунглей / Mowgli: Legend of the Jungle [2018 WEB-DLRip-AVC] DUB bober100 Скачать
1 | 0
Фильмы 2018 [DVDrip, WEB-DLRip, HDrip] (DUB, MVO) [ 1.46 GB ] Маугли: Легенда джунглей / Mowgli: Legend of the Jungle [2018 экранизация WEB-DLRip] killermax2013 Скачать
2 | 0
National Geographic [ 1.18 GB ] National Geographic: Инстинкт выживания. Смертельные джунгли / Primal survivor. Deadly Jungle [2018 ДокументальныйDVB ] Armstrong Скачать
1 | 0
National Geographic [ 1.18 GB ] National Geographic: Инстинкт выживания. Жертвоприношение в джунглях / Primal survivor. Jungle Sacrifice [2017 ДокументальныйDVB ] Armstrong Скачать
1 | 0
National Geographic [ 1.17 GB ] National Geographic: Инстинкт выживания. Дикие джунгли / Primal survivor. Savage Jungle [2015 ДокументальныйDVB ] Armstrong Скачать
1 | 0
National Geographic [ 2.36 GB ] Тайны дикой природы Индии: Короли джунглей / Secrets of Wild India: Kings of The Jungle [2018 ДокументальныйHDTVRip ] Armstrong Скачать
1 | 0

28-11-2019 20:33  

Отключить всю рекламу на сайте

    Дорогой пользователь! Огромная просьба, поблагодарите релизера, оцените раздачу и оставьте свои комментарий, если Вы скачали Джунгли через торрент бесплатно! Внесите свою лепту в развитие PiratBit!
    Комментировать посты могут только пользователи прошедшие не сложную регистрацию
    Показать сообщения:    

    Джунгли через торрент
    Скачать бесплатно Джунгли
    Джунгли скачать торрент
    Джунгли смотреть онлайн
    Cкачать фильм Джунгли бесплатно
    Джунгли скачать торрент в хорошем качестве
    Джунгли смотреть онлайн бесплатно в хорошем качестве


    Вы не можете начинать темы
    Вы не можете отвечать на сообщения
    Вы не можете редактировать свои сообщения
    Вы не можете удалять свои сообщения
    Вы не можете голосовать в опросах
    Вы не можете прикреплять файлы к сообщениям
    Вы можете скачивать файлы