Ссылка на приватное зеркало нашего сайта всего за 1$. Внимание количество ограничено!!!

2 сезон

iTunes

1 сезон

1

2 сезон

2 сезон

iTunes

1 сезон

RePack

30

Ultimate

ВАЖНО

ИГРА 18+

pack

RePack

MK11
pack

Забери бонус

RePack

jed

!!Акция!!

Alien_Rage

RePack

fifa19

RePack

Assassins Creed: Odyssey

RePack

NEED FOR SPEED™ PAYBACK

4 сезон

9 сезон

Бесстыжие 9 сезон

Все сериалы

все сериалы на PB.wtf

RePack

FAR CRY 5
  

Трагедия в Уэйко / Waco / Сезон: 1 / Серии: 1-6 из 6 (Джон Эрик Даудл, Дэнни Гордон) [2018, триллер, драма, криминал, WEB-DL 720p] MVO [NewStudio] pb.wtf

Трагедия в Уэйко через торрент pb.wtf

Раздают: 2 [ 0 KB/s ]
Размер: 5.8 GB | Добавлен: 2 года 8 мес. назад | Торрент скачан:121 раз
Скачать  

31-01-2018 02:35 Трагедия в Уэйко Скачать торрент  

Трагедия в Уэйко / WacoГод выпуска: 2018
Страна: США
Жанр: триллер, драма, криминал
Продолжительность: x ~ 00:45:00
Перевод: Профессиональный многоголосый -
Субтитры: Русские
Примечание: Без рекламы!

Режиссер: Джон Эрик Даудл, Дэнни Гордон

rating

В ролях:

Тейлор Китч, Майкл Шеннон, Демор Барнс, Мелисса Бенойст, Рори Калкин, Дункан Джойнер, Джон Легуизамо, Анника Маркс, Андреа Райзборо, Пол Спаркс

Описание:

Минисериал основан на трагических событиях весны 1993 года, когда жители ранчо «Маунт Кармел» были заподозрены в незаконном хранении оружия. В ходе облавы завязалась перестрелка, которая привела к вооруженному противостоянию между сектантами и агентами ФБР, продлившемуся 51 день. За время осады погибли 82 члена секты, в том числе и сам Кореш, а также 4 федеральных агента.

Качество: WEB-DL 720p
Формат: MKV
Видео кодек: H.264
Аудио кодек: AC3

Видео: ~2390 kb/s, 1280x720
Аудио#1: Русский: AC3, 192 kb/s
Аудио#2: Оригинал: EAC3, 224 kb/s
скриншот   скриншот   скриншот   скриншот   скриншот   скриншот  

Общее
Уникальный идентификатор : 196354718312861873247741626903016595126 (0x93B88B0D52BE48FC84B9215C9C495EB6)
Полное имя : D:\Waco (Season 01) NewStudio\Waco.s01e01.WEBDL.720p.NewStudio.TV.BLACKTIR.mkv
Формат : Matroska
Версия формата : Version 4 / Version 2
Размер файла : 962 Мбайт
Продолжительность : 47 м. 55 с.
Режим общего битрейта : Переменный
Общий поток : 2807 Кбит/сек
Дата кодирования : UTC 2018-01-31 11:24:40
Программа кодирования : mkvmerge v18.0.0 ('Apricity') 64-bit
Библиотека кодирования : libebml v1.3.5 + libmatroska v1.4.8

Видео
Идентификатор : 1
Формат : AVC
Формат/Информация : Advanced Video Codec
Профиль формата : High@L3.1
Параметр CABAC формата : Да
Параметр RefFrames формата : 5 кадров
Идентификатор кодека : V_MPEG4/ISO/AVC
Продолжительность : 47 м. 55 с.
Вид битрейта : Переменный
Битрейт : 2335 Кбит/сек
Максимальный битрейт : 4500 Кбит/сек
Ширина : 1280 пикселей
Высота : 720 пикселей
Соотношение сторон : 16:9
Режим частоты кадров : Постоянный
Частота кадров : 23,976 (24000/1001) кадра/сек
Цветовое пространство : YUV
Субдискретизация насыщенности : 4:2:0
Битовая глубина : 8 бит
Тип развёртки : Прогрессивная
Бит/(Пиксели*Кадры) : 0.106
Размер потока : 800 Мбайт (83%)
Язык : English
Default : Да
Forced : Нет
Цветовой диапазон : Limited
Основные цвета : BT.709
Характеристики трансфера : BT.709
Коэффициенты матрицы : BT.709

Аудио #1
Идентификатор : 2
Формат : AC-3
Формат/Информация : Audio Coding 3
Расширение режима : CM (complete main)
Параметр Endianness формата : Big
Идентификатор кодека : A_AC3
Продолжительность : 47 м. 55 с.
Вид битрейта : Постоянный
Битрейт : 192 Кбит/сек
Каналы : 2 канала
Расположение каналов : Front: L R
Частота : 48,0 КГц
Частота кадров : 31,250 кадров/сек (1536 spf)
Метод сжатия : С потерями
Размер потока : 65,8 Мбайт (7%)
Заголовок : NewStudio.TV
Язык : Russian
Default : Да
Forced : Нет

Аудио #2
Идентификатор : 3
Формат : E-AC-3
Формат/Информация : Audio Coding 3
Параметр Endianness формата : Big
Идентификатор кодека : A_EAC3
Продолжительность : 47 м. 55 с.
Вид битрейта : Постоянный
Битрейт : 224 Кбит/сек
Каналы : 2 канала
Расположение каналов : Front: L R
Частота : 48,0 КГц
Частота кадров : 187,500 кадров/сек (256 spf)
Метод сжатия : С потерями
Размер потока : 76,8 Мбайт (8%)
Заголовок : English
Язык : English
Default : Нет
Forced : Нет

Внимание! Раздача ведётся путём добавления новых серий; при каждом добавлении создаётся новый торрент. Чтобы начать докачку новой серии, пользователям необходимо сделать следующее:
(1) остановить скачивание,
(2) удалить старый торрент у себя из клиента (старые серии удалять не надо),
(3) скачать новый торрент и запустить его у себя в клиенте вместо старого, при этом указать клиенту путь в старую папку куда и должно происходить скачивание новых серий.
Ваш клиент при этом должен произвести хеширование (проверку) старой папки (если не производит сам - помогите ему сделать это), и будет докачивать только те серии которых у вас ещё нет. Старые серии при этом не удаляются, а продолжают раздаваться!
Eсли вы уже удалили старые серии, то предотвратить повторную закачку старых серий можно, отжав галочку в соответствующих местах при запуске нового торрента. По возможности, желательно не удалять старые серии как можно дольше чтобы релизёр не столько продолжал раздавать старые серии, а смог сконцентрироваться на новых.
pb.wtf



Скачать Трагедия в Уэйко через торрент http://i101.fastpic.ru/big/2018/0125/c8/45b3fbafc0f52b8f2bd3c0233a93adc8.png Скачать фильм Трагедия в Уэйко через торрент бесплантно в хорошем качестве Описание: Минисериал основан на трагических событиях весны 1993 года, когда жители ранчо «Маунт Кармел» были заподозрены в незаконном ... 10 10 6
Info! Золотая раздача, скачанное не засчитывается.
Торрент: Зарегистрирован [2018-03-16 12:56] · скачан: 121 раз
Статус: √ проверено
Размер: 5.8 GB
Как cкачать? Как скачать Трагедия в Уэйко через торрент | qTorrent

% Раздел Тема Автор DL S | L
Зарубежные сериалы [ 15.87 GB ] Трагедия в Уэйко / Waco / Сезон: 1 / Серия: 1-6 из 6 [2018 WEB-DL 1080p] DVO [Кубик в Кубе] bober100 Скачать
2 | 0
Зарубежные сериалы [ 6.08 GB ] Трагедия в Уэйко / Waco / Сезон: 1 / Серии: 1-6 из 6 [2018 WEBRip 720p] MVO [Jaskier] bober100 Скачать
1 | 0
Зарубежные сериалы [ 15.86 GB ] Трагедия в Уэйко / Waco / Сезон: 1 / Серии: 1-6 из 6 [2018 WEBRip 1080p] MVO [Jaskier] bober100 Скачать
1 | 0
Зарубежные сериалы [ 3.62 GB ] Трагедия в Уэйко / Waco / Сезон: 1 / Серии: 1-6 из 6 [2018 WEBRip] MVO [Jaskier] bober100 Скачать
1 | 0
Зарубежные сериалы [ 15.94 GB ] Трагедия в Уэйко / Waco / Сезон: 1 / Серии 1-6 из 6 [2018 WEB-DL 1080p] [MVO] killermax2013 Скачать
1 | 0
Зарубежные сериалы [ 15.89 GB ] Трагедия в Уэйко / Waco / Сезон: 1 / Серия: 1-6 из 6 [2018 WEB-DL 1080p] MVO [NewStudio] bober100 Скачать
1 | 0
Зарубежные сериалы [ 3.63 GB ] Трагедия в Уэйко / Waco / Сезон: 1 / Серии: 1-6 из 6 [2018 WEB-DLRip] MVO [NewStudio] bober100 Скачать
1 | 0

28-11-2019 20:33  

Отключить всю рекламу на сайте

    Дорогой пользователь! Огромная просьба, поблагодарите релизера, оцените раздачу и оставьте свои комментарий, если Вы скачали Трагедия в Уэйко через торрент бесплатно! Внесите свою лепту в развитие PiratBit!
    Комментировать посты могут только пользователи прошедшие не сложную регистрацию
    Показать сообщения:    

    Трагедия в Уэйко через торрент
    Скачать бесплатно Трагедия в Уэйко
    Трагедия в Уэйко скачать торрент
    Трагедия в Уэйко смотреть онлайн
    Cкачать фильм Трагедия в Уэйко бесплатно
    Трагедия в Уэйко скачать торрент в хорошем качестве
    Трагедия в Уэйко смотреть онлайн бесплатно в хорошем качестве


    Вы не можете начинать темы
    Вы не можете отвечать на сообщения
    Вы не можете редактировать свои сообщения
    Вы не можете удалять свои сообщения
    Вы не можете голосовать в опросах
    Вы не можете прикреплять файлы к сообщениям
    Вы можете скачивать файлы