Ссылка на приватное зеркало нашего сайта всего за 1$. Внимание количество ограничено!!!

2 сезон

iTunes

1 сезон

1

iTunes

iTunes

iTunes

1 сезон

RePack

30

ИГРА 18+

pack

ВАЖНО

!!Акция!!

Alien_RageХит недели

RePack

MK11
pack

Забери бонус

RePack

jed

!!Акция!!

Alien_Rage

RePack

fifa19

RePack

Assassins Creed: Odyssey

RePack

NEED FOR SPEED™ PAYBACK

4 сезон

9 сезон

Бесстыжие 9 сезон

Все сериалы

все сериалы на PB.wtf

RePack

FAR CRY 5
  

Дорз / The Doors (Оливер Стоун) [1991, драма, музыка, биография, BDRip 1080p by msltel] 2 x MVO, 3 x DVO, 2 x AVO pb.wtf

Дорз через торрент pb.wtf

Размер: 17.59 GB | Добавлен: 2 года 8 мес. назад | Торрент скачан:55 раз
Скачать  

31-01-2018 07:37 Дорз Скачать торрент  

Название: Дорз
Оригинальное название: The Doors
Год выпуска: 1991
Страна: США
Жанр: драма, музыка, биография
Продолжительность: 02:20:39
Перевод: профессиональный многоголосый, профессиональный двухголосый, авторский

Режиссер: Оливер Стоун
В ролях: Вэл Килмер, Мег Райан, Кэтлин Куинлен, Майкл Уинкотт, Майкл Мэдсен, Джош Эванс, Деннис Беркли, Билли Айдол, Кайл МакЛахлан, Мег Райан, Кевин Диллон

О фильме: Классический фильм об известном американском музыканте и секс-символе Джиме Моррисоне, его легендарной группе «Дорз» и славных шестидесятых. Это были годы небывалого стремления к свободе и ошеломляющей популярности рок-н-ролла. Его идолы возводились на пьедестал, им поклонялись и подражали. «Дорз» и их раскованная, пьянящая музыка стали символом поколения...



Качество: BDRip 1080p
Формат: MKV
Видео: MPEG-4 AVC, 11.8 Mбит/с, 1920x816, 23.976 кадр/с
Аудио 1: русский, AC3, 384 kbps, 6 ch, 48 kHz [закадровый многоголосый, CP Digital]
Аудио 2: русский, MP3, 128 kbps, 2 ch, 48 kHz [закадровый многоголосый, PTP]
Аудио 3: русский, AC3, 448 kbps, 6 ch, 48 kHz [закадровый двухголосый, 816 DVD TEAM]
Аудио 4: русский, AC3, 448 kbps, 6 ch, 48 kHz [закадровый двухголосый, D2Lab]
Аудио 5: русский, MP3, 128 kbps, 2 ch, 48 kHz [закадровый двухголосый, OPT]
Аудио 6: русский, DTS, 1509 kbps, 6 ch, 48 kHz [авторский, Андрей Гаврилов]
Аудио 7: русский, DTS, 1509 kbps, 6 ch, 48 kHz [авторский, Михаил Чадов]
Аудио 8: английский, DTS, 1509 kbps, 6 ch, 48 kHz [оригинал]
Субтитры 1: русские (CP Digital)
Субтитры 2: русские (тексты песен)
Субтитры 3: английские
Поименованные главы/чаптеры.
Общее
Уникальный идентификатор : 225992837264597630161272070083457608486 (0xAA04A322D9269125A3B8B9E5BF246B26)
Полное имя : D:\Video\Дорз.1991.BDRip.1080p by msltel.mkv
Формат : Matroska
Версия формата : Version 4 / Version 2
Размер файла : 17,6 Гбайт
Продолжительность : 2 ч. 20 м.
Общий поток : 17,9 Мбит/сек
Название фильма : Rip by msltel
Дата кодирования : UTC 2018-01-31 01:39:40
Программа кодирования : mkvmerge v8.2.0 ('World of Adventure') 64bit
Библиотека кодирования : libebml v1.3.1 + libmatroska v1.4.2

Видео
Идентификатор : 1
Формат : AVC
Формат/Информация : Advanced Video Codec
Профиль формата : High@L4.1
Настройки формата : CABAC / 4 Ref Frames
Параметр CABAC формата : Да
Параметр RefFrames формата : 4 кадра
Идентификатор кодека : V_MPEG4/ISO/AVC
Продолжительность : 2 ч. 20 м.
Битрейт : 11,8 Мбит/сек
Ширина : 1920 пикселей
Высота : 816 пикселей
Соотношение сторон : 2,35:1
Режим частоты кадров : Постоянный
Частота кадров : 23,976 (24000/1001) кадра/сек
Цветовое пространство : YUV
Субдискретизация насыщенности : 4:2:0
Битовая глубина : 8 бит
Тип развёртки : Прогрессивная
Бит/(Пиксели*Кадры) : 0.315
Размер потока : 11,6 Гбайт (66%)
Библиотека кодирования : x264 core 146 r2538 121396c
Настройки программы : cabac=1 / ref=4 / deblock=1:-3:-2 / analyse=0x3:0x113 / me=umh / subme=11 / psy=1 / psy_rd=1.00:0.15 / mixed_ref=1 / me_range=32 / chroma_me=1 / trellis=2 / 8x8dct=1 / cqm=0 / deadzone=21,11 / fast_pskip=0 / chroma_qp_offset=-3 / threads=6 / lookahead_threads=1 / sliced_threads=0 / nr=0 / decimate=1 / interlaced=0 / bluray_compat=0 / constrained_intra=0 / bframes=6 / b_pyramid=2 / b_adapt=2 / b_bias=0 / direct=1 / weightb=1 / open_gop=0 / weightp=2 / keyint=230 / keyint_min=23 / scenecut=40 / intra_refresh=0 / rc_lookahead=40 / rc=crf / mbtree=0 / crf=17.3 / qcomp=0.60 / qpmin=0 / qpmax=69 / qpstep=4 / vbv_maxrate=62500 / vbv_bufsize=78125 / crf_max=0.0 / nal_hrd=none / filler=0 / ip_ratio=1.40 / pb_ratio=1.30 / aq=1:1.00
Язык : English
Default : Да
Forced : Нет

Аудио #1
Идентификатор : 2
Формат : AC-3
Формат/Информация : Audio Coding 3
Идентификатор кодека : A_AC3
Продолжительность : 2 ч. 20 м.
Вид битрейта : Постоянный
Битрейт : 384 Кбит/сек
Каналы : 6 каналов
Расположение каналов : Front: L C R, Side: L R, LFE
Частота : 48,0 КГц
Частота кадров : 31,250 кадров/сек (1536 SPF)
Битовая глубина : 16 бит
Метод сжатия : С потерями
Размер потока : 386 Мбайт (2%)
Заголовок : MVO.CP Digital
Язык : Russian
ServiceKind/String : Complete Main
Default : Да
Forced : Нет

Аудио #2
Идентификатор : 3
Формат : MPEG Audio
Версия формата : Version 1
Профиль формата : Layer 3
Идентификатор кодека : A_MPEG/L3
Идентификатор кодека/Подсказка : MP3
Продолжительность : 2 ч. 20 м.
Вид битрейта : Постоянный
Битрейт : 128 Кбит/сек
Каналы : 2 канала
Частота : 48,0 КГц
Частота кадров : 41,667 кадра/сек (1152 SPF)
Метод сжатия : С потерями
Размер потока : 129 Мбайт (1%)
Заголовок : MVO.PTP
Язык : Russian
Default : Нет
Forced : Нет

Аудио #3
Идентификатор : 4
Формат : AC-3
Формат/Информация : Audio Coding 3
Идентификатор кодека : A_AC3
Продолжительность : 2 ч. 20 м.
Вид битрейта : Постоянный
Битрейт : 448 Кбит/сек
Каналы : 6 каналов
Расположение каналов : Front: L C R, Side: L R, LFE
Частота : 48,0 КГц
Частота кадров : 31,250 кадров/сек (1536 SPF)
Битовая глубина : 16 бит
Метод сжатия : С потерями
Размер потока : 451 Мбайт (3%)
Заголовок : DVO.816 DVD TEAM
Язык : Russian
ServiceKind/String : Complete Main
Default : Нет
Forced : Нет

Аудио #4
Идентификатор : 5
Формат : AC-3
Формат/Информация : Audio Coding 3
Идентификатор кодека : A_AC3
Продолжительность : 2 ч. 20 м.
Вид битрейта : Постоянный
Битрейт : 448 Кбит/сек
Каналы : 6 каналов
Расположение каналов : Front: L C R, Side: L R, LFE
Частота : 48,0 КГц
Частота кадров : 31,250 кадров/сек (1536 SPF)
Битовая глубина : 16 бит
Метод сжатия : С потерями
Размер потока : 451 Мбайт (3%)
Заголовок : DVO.D2Lab
Язык : Russian
ServiceKind/String : Complete Main
Default : Нет
Forced : Нет

Аудио #5
Идентификатор : 6
Формат : MPEG Audio
Версия формата : Version 1
Профиль формата : Layer 3
Идентификатор кодека : A_MPEG/L3
Идентификатор кодека/Подсказка : MP3
Продолжительность : 2 ч. 20 м.
Вид битрейта : Постоянный
Битрейт : 128 Кбит/сек
Каналы : 2 канала
Частота : 48,0 КГц
Частота кадров : 41,667 кадра/сек (1152 SPF)
Метод сжатия : С потерями
Размер потока : 129 Мбайт (1%)
Заголовок : DVO,OPT
Язык : Russian
Default : Нет
Forced : Нет

Аудио #6
Идентификатор : 7
Формат : DTS
Формат/Информация : Digital Theater Systems
Идентификатор кодека : A_DTS
Продолжительность : 2 ч. 20 м.
Вид битрейта : Постоянный
Битрейт : 1510 Кбит/сек
Каналы : 6 каналов
Расположение каналов : Front: L C R, Side: L R, LFE
Частота : 48,0 КГц
Частота кадров : 93,750 кадра/сек (512 SPF)
Битовая глубина : 24 бит
Метод сжатия : С потерями
Размер потока : 1,48 Гбайт (8%)
Заголовок : Андрей Гаврилов
Язык : Russian
Default : Нет
Forced : Нет

Аудио #7
Идентификатор : 8
Формат : DTS
Формат/Информация : Digital Theater Systems
Идентификатор кодека : A_DTS
Продолжительность : 2 ч. 20 м.
Вид битрейта : Постоянный
Битрейт : 1509 Кбит/сек
Каналы : 6 каналов
Расположение каналов : Front: L C R, Side: L R, LFE
Частота : 48,0 КГц
Частота кадров : 93,750 кадра/сек (512 SPF)
Битовая глубина : 24 бит
Метод сжатия : С потерями
Размер потока : 1,48 Гбайт (8%)
Заголовок : Михаил Чадов
Язык : Russian
Default : Нет
Forced : Нет

Аудио #8
Идентификатор : 9
Формат : DTS
Формат/Информация : Digital Theater Systems
Идентификатор кодека : A_DTS
Продолжительность : 2 ч. 20 м.
Вид битрейта : Постоянный
Битрейт : 1509 Кбит/сек
Каналы : 6 каналов
Расположение каналов : Front: L C R, Side: L R, LFE
Частота : 48,0 КГц
Частота кадров : 93,750 кадра/сек (512 SPF)
Битовая глубина : 24 бит
Метод сжатия : С потерями
Размер потока : 1,48 Гбайт (8%)
Заголовок : original
Язык : English
Default : Нет
Forced : Нет

Текст #1
Идентификатор : 10
Формат : UTF-8
Идентификатор кодека : S_TEXT/UTF8
Идентификатор кодека/Информация : UTF-8 Plain Text
Продолжительность : 2 ч. 12 м.
Битрейт : 77 бит/сек
ElementCount : 1140
Размер потока : 75,8 Кбайт (0%)
Заголовок : русские.CP Digital
Язык : Russian
Default : Нет
Forced : Нет

Текст #2
Идентификатор : 11
Формат : ASS
Идентификатор кодека : S_TEXT/ASS
Идентификатор кодека/Информация : Advanced Sub Station Alpha
Продолжительность : 2 ч. 16 м.
Битрейт : 49 бит/сек
ElementCount : 678
Метод сжатия : Без потерь
Размер потока : 49,6 Кбайт (0%)
Заголовок : русские.тексты песен
Язык : Russian
Default : Нет
Forced : Нет

Текст #3
Идентификатор : 12
Формат : UTF-8
Идентификатор кодека : S_TEXT/UTF8
Идентификатор кодека/Информация : UTF-8 Plain Text
Продолжительность : 2 ч. 13 м.
Битрейт : 59 бит/сек
ElementCount : 1548
Размер потока : 57,9 Кбайт (0%)
Заголовок : английские
Язык : English
Default : Нет
Forced : Нет

Меню
00:00:00.000 : en:Opening Credits
00:04:53.234 : en:Venice Beach
00:07:54.735 : en:UCLA Film School
00:09:58.735 : en:Beautiful Night
00:11:34.735 : en:The Shaman
00:14:40.902 : en:"The Doors of Perception."
00:18:09.236 : en:Garage Session
00:21:42.270 : en:Sunset Strip
00:23:42.070 : en:The Musketeers
00:27:05.738 : en:Trip to the Desert
00:39:42.739 : en:Let's Go Make a Record
00:40:53.739 : en:An Album of Killer Music
00:43:04.739 : en:New York
00:44:58.573 : en:The Ed Sullivan Show
00:47:58.073 : en:The One They Want
00:50:00.573 : en:The Warhol Party
00:56:18.140 : en:Out On the Town
00:58:19.974 : en:The Press Conference
01:01:04.808 : en:Blood Ritual
01:05:15.808 : en:"Will You Die for Me?"
01:08:57.475 : en:New Haven, 1968
01:18:31.975 : en:"Testing the Bounds of Reality."
01:19:49.975 : en:Drinking Buddies
01:21:11.142 : en:The Poet & His Muse
01:23:59.010 : en:Another Ruined Thanksgiving
01:29:11.010 : en:San Francisco, 1968
01:36:28.445 : en:Too Drunk to Sing
01:43:19.079 : en:Miami, 1969
01:57:34.848 : en:Trial In Miami
02:01:30.215 : en:Nervous Breakdown
02:02:44.016 : en:Life On the Edge
02:05:07.083 : en:Birthday Party
02:09:06.051 : en:"Let's Get Some Tacos."
02:09:40.752 : en:Paris, 1971
02:13:24.653 : en:End Credits
pb.wtf



Скачать Дорз через торрент https://d.radikal.ru/d07/1801/14/43a5269bc69a.jpg Скачать фильм Дорз через торрент бесплантно в хорошем качестве О фильме: Классический фильм об известном американском музыканте и секс-символе Джиме Моррисоне, его легендарной группе «Дорз» и славных ... 10 10 4
Info! Золотая раздача, скачанное не засчитывается.
Торрент: Зарегистрирован [2018-01-31 07:37] · скачан: 55 раз
Статус: √ проверено
Размер: 17.59 GB
Как cкачать? Как скачать Дорз через торрент | qTorrent

% Раздел Тема Автор DL S | L
Фильмы [HD 720p, 1080p] (Хороший звук DUB, MVO) [ 7.1 GB ] Дорз / The Doors [1991 музыка биография BDRip 720p by msltel] 2 x MVO 3 x DVO 2 x AVO msltel Скачать
1 | 0

28-11-2019 20:33  

Отключить всю рекламу на сайте

    Дорогой пользователь! Огромная просьба, поблагодарите релизера, оцените раздачу и оставьте свои комментарий, если Вы скачали Дорз через торрент бесплатно! Внесите свою лепту в развитие PiratBit!
    Комментировать посты могут только пользователи прошедшие не сложную регистрацию
    Показать сообщения:    

    Дорз через торрент
    Скачать бесплатно Дорз
    Дорз скачать торрент
    Дорз смотреть онлайн
    Cкачать фильм Дорз бесплатно
    Дорз скачать торрент в хорошем качестве
    Дорз смотреть онлайн бесплатно в хорошем качестве


    Вы не можете начинать темы
    Вы не можете отвечать на сообщения
    Вы не можете редактировать свои сообщения
    Вы не можете удалять свои сообщения
    Вы не можете голосовать в опросах
    Вы не можете прикреплять файлы к сообщениям
    Вы можете скачивать файлы