MEGA SALE -50% FORZA HORIZON 4 ULTIMATE+ВСЕ DLC+ОНЛАЙН всего за 599р. 299 руб. (супер цена). Внимание количество ограничено!!!

iTunes

1+1

iTunes

мы

iTunes

1

iTunes

Чернобыль

1 сезон

Ральф против интернета

Лицензия

ПШазам

Лицензия

Игра престолов

Лицензия

30
pack

ВАЖНО

!!Акция!!

Alien_RageХит недели

RePack

Resident Evil 21

ИГРА 18+

pack

RePack

Metro:Exodus

!!Акция!!

Alien_Rage

RePack

fifa19

RePack

Assassins Creed: Odyssey

RePack

NEED FOR SPEED™ PAYBACK

3 сезон

9 сезон

Бесстыжие 9 сезон

Все сериалы

все сериалы на PB.wtf

RePack

FAR CRY 5
Ребята, катастрофически не хватает 7730р. для оплаты серверов за ИЮЛЬ (всвязи с блокировками трафик упал в 3 раза), 1-2р., выручайте.
  

Волшебники из Вэйверли Плэйс в кино / Wizards of Waverly Place: The Movie (Лев Л. Спиро / Lev L. Spiro) [2009, США, фэнтези, драма, комедия, приключения, семейный, WEB-DLRip от AVP Studio] Dub pb.wtf

Волшебники из Вэйверли Плэйс в кино через торрент pb.wtf

Размер: 745 MB | Добавлен: 1 год 6 мес. назад | Торрент скачан:15 раз
Скачать  

31-01-2018 09:02 Волшебники из Вэйверли Плэйс в кино Скачать торрент  

Волшебники из Вэйверли Плэйс в кино
Wizards of Waverly Place: The Movie
«Family vacations can be tricky»
Страна: США
Производство: It's a Laugh Productions

Жанр: фэнтези, драма, комедия, приключения, семейный
Год выпуска: 2009
Продолжительность: 01:38:03

Перевод: Профессиональный (дублированный)
Оригинальная аудиодорожка: английский
Cубтитры: нет

Режиссер: Лев Л. Спиро / Lev L. Spiro

В ролях:
Селена Гомес, Дэвид Генри, Джейк Т. Остин, Дженнифер Стоун, Мария Кэнелс-Баррера, Дэвид ДеЛуис, Стив Валентайн, Ксавьер Торрес, Дженни Элден, Жасмин Каратини...

Описание:
Семья волшебников Руссо решает провести каникулы на Карибах — именно там Джерри и Тереза встретились в первый раз. Алекс расстроена, поскольку она должна сопровождать свою семью в поездке, а это не входит в её планы. Заклинанием она меняет ход событий прошлого, предотвращая первую встречу своих родителей, и ставит под угрозу существование всей своей семьи. Чтобы отменить действие заклинания, Алекс и Джастин отправляются в невероятное путешествие через джунгли. Тем временем, Макс, младший брат Алекс, прикладывает массу усилий, чтобы родители влюбились друг в друга вновь.

Исходник: WEB-DL 1080p
Тип релиза: WEB-DLRip
Контейнер: AVI

Видео: 624x352 (16:9), 23,976 fps, XviD ~ 926 kbps avg, 0.176 bit/pixel
Аудио: 48 kHz, MP3 2.0, 128 kbps

Раздача от:
Общее
Полное имя : Volshebniki.iz.Vyeyverli.Plyeys.v.kino.2009.WEB-DLRip-745_[New-team]_by_AVP_Studio.avi
Формат : AVI
Формат/Информация : Audio Video Interleave
Размер файла : 745 Мбайт
Продолжительность : 1 ч. 38 м.
Общий поток : 1063 Кбит/сек
Программа кодирования : VirtualDubMod 1.5.10.3 | www.virtualdub-fr.org || (build 2550/release)
Библиотека кодирования : VirtualDubMod build 2550/release

Видео
Идентификатор : 0
Формат : MPEG-4 Visual
Профиль формата : Advanced Simple@L5
Настройки формата : BVOP1 / Custom Matrix
Параметр BVOP формата : 1
Параметр QPel формата : Нет
Параметр GMC формата : Без точки перехода
Параметр матрицы формата : Выборочная
Идентификатор кодека : XVID
Идентификатор кодека/Подсказка : XviD
Продолжительность : 1 ч. 38 м.
Битрейт : 926 Кбит/сек
Ширина : 624 пикселя
Высота : 352 пикселя
Соотношение сторон : 16:9
Частота кадров : 23,976 (24000/1001) кадра/сек
Цветовое пространство : YUV
Субдискретизация насыщенности : 4:2:0
Битовая глубина : 8 бит
Тип развёртки : Прогрессивная
Метод сжатия : С потерями
Бит/(Пиксели*Кадры) : 0.176
Размер потока : 649 Мбайт (87%)
Библиотека кодирования : XviD 73

Аудио
Идентификатор : 1
Формат : MPEG Audio
Версия формата : Version 1
Профиль формата : Layer 3
Идентификатор кодека : 55
Идентификатор кодека/Подсказка : MP3
Продолжительность : 1 ч. 38 м.
Вид битрейта : Постоянный
Битрейт : 128 Кбит/сек
Каналы : 2 канала
Частота : 48,0 КГц
Частота кадров : 41,667 кадра/сек (1152 SPF)
Метод сжатия : С потерями
Размер потока : 89,8 Мбайт (12%)
Выравнивание : Соединение по промежуткам
Продолжительность промежутка : 42 мс. (1,00 видеокадр)
Время предзагрузки промежутка : 504 мс.
Библиотека кодирования : LAME3.99r
Настройки программы : -m s -V 4 -q 2 -lowpass 17 -b 128
pb.wtf



Скачать Волшебники из Вэйверли Плэйс в кино через торрент http://i101.fastpic.ru/big/2018/0131/bf/1998a3e1f02034807a7e8b56b751d3bf.png Скачать фильм Волшебники из Вэйверли Плэйс в кино через торрент бесплантно в хорошем качестве Описание:Семья волшебников Руссо решает провести каникулы на Карибах — именно там Джерри и Тереза встретились в первый раз. Алекс ... 10 10 1
Info! Золотая раздача, скачанное не засчитывается.
Торрент: Зарегистрирован [2018-01-31 09:02] · скачан: 15 раз
Статус: √ проверено
Размер: 745 MB
Как cкачать? Как скачать Волшебники из Вэйверли Плэйс в кино через торрент | qTorrent

% Раздел Тема Автор DL S | L
Фильмы 2009 [ 1.47 GB ] Волшебники из Вэйверли Плэйс в кино / Wizards of Waverly Place: The Movie [2009 WEB-DLRip от AVP Studio] Dub + Ukr + Original AVP Studio Скачать
1 | 0
Фильмы 2009 [ 2.18 GB ] Волшебники из Вэйверли Плэйс в кино / Wizards of Waverly Place: The Movie [2009 WEB-DLRip-AVC от AVP Studio] Dub + Ukr + Original + Sub AVP Studio Скачать
1 | 0


Последний раз редактировалось: AVP Studio (2018-01-31 09:38), всего редактировалось 1 раз


>> Регистрируемся здесь <<






Отзывы и комментарии о схеме читаем и пишем здесь: ---> Отзывы и комментарии о схеме

Новые благодарочки в телеграм довольных пользователей:
скриншот   скриншот   скриншот   скриншот   скриншот

31-01-2018 09:08 Волшебники из Вэйверли Плэйс в кино Скачать торрент  

Топик был перенесен из форума Кино СССР в форум Фильмы 2009


-Lexx-pb.wtf



    Дорогой пользователь! Огромная просьба, поблагодарите релизера, оцените раздачу и оставьте свои комментарий, если Вы скачали Волшебники из Вэйверли Плэйс в кино через торрент бесплатно! Внесите свою лепту в развитие PiratBit!
    Комментировать посты могут только пользователи прошедшие не сложную регистрацию
    Показать сообщения:    

    Волшебники из Вэйверли Плэйс в кино через торрент
    Скачать бесплатно Волшебники из Вэйверли Плэйс в кино
    Волшебники из Вэйверли Плэйс в кино скачать торрент
    Волшебники из Вэйверли Плэйс в кино смотреть онлайн
    Cкачать фильм Волшебники из Вэйверли Плэйс в кино бесплатно
    Волшебники из Вэйверли Плэйс в кино скачать торрент в хорошем качестве
    Волшебники из Вэйверли Плэйс в кино смотреть онлайн бесплатно в хорошем качестве


    Вы не можете начинать темы
    Вы не можете отвечать на сообщения
    Вы не можете редактировать свои сообщения
    Вы не можете удалять свои сообщения
    Вы не можете голосовать в опросах
    Вы не можете прикреплять файлы к сообщениям
    Вы можете скачивать файлы