Ссылка на приватное зеркало всего за 1$. Внимание количество ограничено!!!

OK

1+1

iTunes

мы

OK

1

WEB-DLRip

Джокер

Пифагор

Ведьмак / The Witcher сериал

Лицензия

ПШазам

ОК

Оно 2

iTunes

30
pack

Вам бонус

ВАЖНО

!!Акция!!

Alien_RageХит недели

RePack

Resident Evil 21

ИГРА 18+

pack

RePack

jed

RePack

fifa19

RePack

Assassins Creed: Odyssey

RePack

NEED FOR SPEED™ PAYBACK

4 сезон

9 сезон

Бесстыжие 9 сезон

Все сериалы

все сериалы на PB.wtf

RePack

FAR CRY 5
  

Божья коровка / Lady Bug (Брукс Кэмпбелл) [2017 г., Триллер, WEB-DLRip, Любительский (многоголосый) [Синема УС]] pb.wtf

Божья коровка через торрент pb.wtf

Размер: 1.37 GB | Добавлен: 1 год 11 мес. назад | Торрент скачан:120 раз
Скачать  

31-01-2018 14:16 Божья коровка Скачать торрент  

Божья коровка / Lady Bug
Год выпуска: 2017
Страна: США
Жанр: Триллер
Продолжительность: 01:42:31
Перевод: Любительский (многоголосый) [Синема УС]
Субтитры: Нет

Режиссер: Брукс Кэмпбелл

В ролях: Кристофер Шоуэрман, Шанель Марриотт, Мара Нью, Кендра Мангер, Дженнифер Джарретт, Рэйчел Ст. Роуз, Наташа Копп, Перри Ламберт

Описание: Рой, муж Лекси, ушёл служить в Афганистан и оставил её с двумя детьми. Лекси, не выдержав груза ответственности, становится наркоманкой. Вернувшись со службы целым и невредимым, Рой забирает детей у жены и уезжает в Сан-Диего. Обезумевшая от тоски и наркотиков Лекси забирается в лодку с надписью «Сан-Диего», думая, что она доставит её к детям. Но в море женщина обнаруживает, что попала в руки к психу, который собирается утопить труп своей жены.

Доп. информация: Есть реклама.

Качество: WEB-DLRip
Формат: AVI
Видео кодек: XviD
Аудио кодек: AC3
Видео: 720x304 (2.37:1), 23.976 fps, XviD build 50 ~1515 kbps avg, 0.29 bit/pixel
Аудио#1: 48 kHz, AC3 Dolby Digital, 2/0 (L,R) ch, ~384 kbps

General
Complete name : H:\релизы.торрентфайл\Lady.Bug.2017.P.WEB-DLRip.14OOMB_KOSHARA.avi
Format : AVI
Format/Info : Audio Video Interleave
File size : 1.37 GiB
Duration : 1h 42mn
Overall bit rate : 1 909 Kbps
Writing application : VirtualDubMod 1.5.10.2 (build 2540/release)
Writing library : VirtualDubMod build 2540/release

Video
ID : 0
Format : MPEG-4 Visual
Format profile : Advanced Simple@L5
Format settings, BVOP : 2
Format settings, QPel : No
Format settings, GMC : No warppoints
Format settings, Matrix : Default (MPEG)
Codec ID : XVID
Codec ID/Hint : XviD
Duration : 1h 42mn
Bit rate : 1 516 Kbps
Width : 720 pixels
Height : 304 pixels
Display aspect ratio : 2.35:1
Frame rate : 23.976 fps
Color space : YUV
Chroma subsampling : 4:2:0
Bit depth : 8 bits
Scan type : Progressive
Compression mode : Lossy
Bits/(Pixel*Frame) : 0.289
Stream size : 1.09 GiB (79%)
Writing library : XviD 1.2.1 (UTC 2008-12-04)

Audio
ID : 1
Format : AC-3
Format/Info : Audio Coding 3
Mode extension : CM (complete main)
Format settings, Endianness : Big
Codec ID : 2000
Duration : 1h 42mn
Bit rate mode : Constant
Bit rate : 384 Kbps
Channel(s) : 2 channels
Channel positions : Front: L R
Sampling rate : 48.0 KHz
Bit depth : 16 bits
Compression mode : Lossy
Stream size : 282 MiB (20%)
Alignment : Split accross interleaves
Interleave, duration : 42 ms (1.00 video frame)
Interleave, preload duration : 500 ms

pb.wtf



Скачать Божья коровка через торрент http://i103.fastpic.ru/big/2018/0131/68/68b074ec605e18429902a53e89fb2368.jpg Скачать фильм Божья коровка через торрент бесплантно в хорошем качестве Описание: Рой, муж Лекси, ушёл служить в Афганистан и оставил её с двумя детьми. Лекси, не выдержав груза ответственности, становится ... 6 10 4
Торрент: Зарегистрирован [2018-01-31 14:16] · скачан: 120 раз
Статус: T временная
Размер: 1.37 GB
Как cкачать? Как скачать Божья коровка через торрент | qTorrent

% Раздел Тема Автор DL S | L
T Фильмы (мультфильмы) cо спонсором показа (Новинки AVI/MKV) [ 3.53 GB ] Божья коровка / Lady Bug [2017 WEB-DL 720p] MVO ["Синема УС"] bober100 Скачать
1 | 0
Фильмы [HD 720p, 1080p] (Хороший звук DUB, MVO) [ 10.09 GB ] Божьи коровки / Ladybugs [1992 BDRip 1080p by msltel] 2 x DVO msltel Скачать
1 | 0
Фильмы [HD 720p, 1080p] (Хороший звук DUB, MVO) [ 3.56 GB ] Божьи коровки / Ladybugs [1992 BDRip 720p by msltel] 2 x DVO msltel Скачать
1 | 0
Фильмы до 2000 г. [ 2.28 GB ] Божьи коровки / Ladybugs [1992 BDRip AVC by msltel] 2 x DVO msltel Скачать
1 | 0

28-11-2019 20:33  

Отключить всю рекламу на сайте

    Дорогой пользователь! Огромная просьба, поблагодарите релизера, оцените раздачу и оставьте свои комментарий, если Вы скачали Божья коровка через торрент бесплатно! Внесите свою лепту в развитие PiratBit!
    Комментировать посты могут только пользователи прошедшие не сложную регистрацию
    Показать сообщения:    

    Божья коровка через торрент
    Скачать бесплатно Божья коровка
    Божья коровка скачать торрент
    Божья коровка смотреть онлайн
    Cкачать фильм Божья коровка бесплатно
    Божья коровка скачать торрент в хорошем качестве
    Божья коровка смотреть онлайн бесплатно в хорошем качестве


    Вы не можете начинать темы
    Вы не можете отвечать на сообщения
    Вы не можете редактировать свои сообщения
    Вы не можете удалять свои сообщения
    Вы не можете голосовать в опросах
    Вы не можете прикреплять файлы к сообщениям
    Вы можете скачивать файлы