Ссылка на приватное зеркало всего за 1$. Внимание количество ограничено!!!

OK

1+1

iTunes

мы

OK

1

WEB-DLRip

Джокер

Пифагор

Ведьмак / The Witcher сериал

iTunes

ПШазам

ОК

Оно 2

iTunes

30
pack

Вам бонус

ВАЖНО

!!Акция!!

Alien_RageХит недели

RePack

Resident Evil 21

ИГРА 18+

pack

RePack

jed

RePack

fifa19

RePack

Assassins Creed: Odyssey

RePack

NEED FOR SPEED™ PAYBACK

4 сезон

9 сезон

Бесстыжие 9 сезон

Все сериалы

все сериалы на PB.wtf

RePack

FAR CRY 5
  

Божья коровка / Lady Bug (Брукс Кэмпбелл) [2017, триллер, WEB-DL 720p] MVO ["Синема УС"] pb.wtf

Божья коровка через торрент pb.wtf

Размер: 3.53 GB | Добавлен: 1 год 11 мес. назад | Торрент скачан:33 раза
Скачать  

31-01-2018 19:33 Божья коровка Скачать торрент  

Божья коровка / Lady BugГод выпуска: 2017
Страна: США
Жанр: триллер
Продолжительность: 01:42:31
Перевод: Любительский (многоголосый) ["Синема УС"]
Субтитры: отсутствуют

Режиссер: Брукс Кэмпбелл

rating

В ролях:

Кристофер Шоуэрман, Шанель Марриотт, Мара Нью, Кендра Мангер, Дженнифер Джарретт, Рэйчел Ст. Роуз, Наташа Копп, Перри Ламберт

Описание:

Рой, муж Лекси, ушёл служить в Афганистан и оставил её с двумя детьми. Лекси, не выдержав груза ответственности, становится наркоманкой. Вернувшись со службы целым и невредимым, Рой забирает детей у жены и уезжает в Сан-Диего. Обезумевшая от тоски и наркотиков Лекси забирается в лодку с надписью «Сан-Диего», думая, что она доставит её к детям. Но в море женщина обнаруживает, что попала в руки к психу, который собирается утопить труп своей жены.

Качество: WEB-DL 720p
Формат: MKV
Видео кодек: H.264
Аудио кодек: AC3

Видео: 4540 kb/s, 1280x534
Аудио#1: AC3, 2 ch, 384 kbps

скриншот   скриншот   скриншот  

Общее
Уникальный идентификатор : 187446140011681853296954653145178712366 (0x8D04D03B096B95E58A336EF8D9D6292E)
Полное имя : D:\Lady.Bug.2017.P.WEB-DL.72Op_KOSHARA.mkv
Формат : Matroska
Версия формата : Version 2
Размер файла : 3,53 Гбайт
Продолжительность : 1 ч. 42 м.
Режим общего битрейта : Переменный
Общий поток : 4926 Кбит/сек
Дата кодирования : UTC 2018-01-31 05:20:47
Программа кодирования : mkvmerge v8.3.0 ('Over the Horizon') 64bit
Библиотека кодирования : libebml v1.3.1 + libmatroska v1.4.2

Видео
Идентификатор : 1
Формат : AVC
Формат/Информация : Advanced Video Codec
Профиль формата : High@L4.1
Параметр CABAC формата : Да
Параметр ReFrames формата : 4 кадра
Идентификатор кодека : V_MPEG4/ISO/AVC
Продолжительность : 1 ч. 42 м.
Вид битрейта : Переменный
Битрейт : 4550 Кбит/сек
Максимальный битрейт : 5000 Кбит/сек
Ширина : 1280 пикселей
Высота : 534 пикселя
Соотношение сторон : 2,40:1
Режим частоты кадров : Постоянный
Частота кадров : 23,976 (24000/1001) кадра/сек
Стандарт вещания : Component
Цветовое пространство : YUV
Субдискретизация насыщенности : 4:2:0
Битовая глубина : 8 бит
Тип развёртки : Прогрессивная
Бит/(Пиксели*Кадры) : 0.271
Размер потока : 3,18 Гбайт (90%)
Default : Да
Forced : Нет
Цветовой диапазон : Limited
Основные цвета : BT.709
Характеристики трансфера : BT.709
Коэффициенты матрицы : BT.709

Аудио
Идентификатор : 2
Формат : AC-3
Формат/Информация : Audio Coding 3
Расширение режима : CM (complete main)
Параметр Endianness формата : Big
Идентификатор кодека : A_AC3
Продолжительность : 1 ч. 42 м.
Вид битрейта : Постоянный
Битрейт : 384 Кбит/сек
Каналы : 2 канала
Расположение каналов : Front: L R
Частота : 48,0 КГц
Частота кадров : 31,250 кадров/сек (1536 spf)
Метод сжатия : С потерями
Размер потока : 282 Мбайт (8%)
Default : Да
Forced : Нет

pb.wtf



Скачать Божья коровка через торрент http://img12.lostpic.net/2018/01/31/bff401b38ccb39559d91252130b1ddea.jpg Скачать фильм Божья коровка через торрент бесплантно в хорошем качестве Описание: Рой, муж Лекси, ушёл служить в Афганистан и оставил её с двумя детьми. Лекси, не выдержав груза ответственности, становится ... 8 10 4
Торрент: Зарегистрирован [2018-01-31 19:33] · скачан: 33 раз
Статус: T временная
Размер: 3.53 GB
Как cкачать? Как скачать Божья коровка через торрент | qTorrent

% Раздел Тема Автор DL S | L
T Фильмы (мультфильмы) cо спонсором показа (Новинки AVI/MKV) [ 1.37 GB ] Божья коровка / Lady Bug [2017 WEB-DLRip Любительский [Синема УС]] oleg8 Скачать
1 | 0
Фильмы [HD 720p, 1080p] (Хороший звук DUB, MVO) [ 10.09 GB ] Божьи коровки / Ladybugs [1992 BDRip 1080p by msltel] 2 x DVO msltel Скачать
1 | 0
Фильмы [HD 720p, 1080p] (Хороший звук DUB, MVO) [ 3.56 GB ] Божьи коровки / Ladybugs [1992 BDRip 720p by msltel] 2 x DVO msltel Скачать
1 | 0
Фильмы до 2000 г. [ 2.28 GB ] Божьи коровки / Ladybugs [1992 BDRip AVC by msltel] 2 x DVO msltel Скачать
1 | 0

28-11-2019 20:33  

Отключить всю рекламу на сайте

    Дорогой пользователь! Огромная просьба, поблагодарите релизера, оцените раздачу и оставьте свои комментарий, если Вы скачали Божья коровка через торрент бесплатно! Внесите свою лепту в развитие PiratBit!
    Комментировать посты могут только пользователи прошедшие не сложную регистрацию
    Показать сообщения:    

    Божья коровка через торрент
    Скачать бесплатно Божья коровка
    Божья коровка скачать торрент
    Божья коровка смотреть онлайн
    Cкачать фильм Божья коровка бесплатно
    Божья коровка скачать торрент в хорошем качестве
    Божья коровка смотреть онлайн бесплатно в хорошем качестве


    Вы не можете начинать темы
    Вы не можете отвечать на сообщения
    Вы не можете редактировать свои сообщения
    Вы не можете удалять свои сообщения
    Вы не можете голосовать в опросах
    Вы не можете прикреплять файлы к сообщениям
    Вы можете скачивать файлы