Ссылка на приватное зеркало нашего сайта всего за 1$. Внимание количество ограничено!!!

2 сезон

iTunes

1 сезон

1

iTunes

iTunes

iTunes

1 сезон

RePack

30

ИГРА 18+

pack

ВАЖНО

!!Акция!!

Alien_RageХит недели

RePack

MK11
pack

Забери бонус

RePack

jed

!!Акция!!

Alien_Rage

RePack

fifa19

RePack

Assassins Creed: Odyssey

RePack

NEED FOR SPEED™ PAYBACK

4 сезон

9 сезон

Бесстыжие 9 сезон

Все сериалы

все сериалы на PB.wtf

RePack

FAR CRY 5
  

Последняя статья журналиста / Сезон 1 / Серии 1-16 из 16 (Евгений Сологалов, Виктор Татарский (II), Арменак Назикян) [2018, Детектив, драма, криминал, WEB-DL 1080p] pb.wtf

Последняя статья журналиста через торрент pb.wtf

Размер: 34.76 GB | Добавлен: 2 года 8 мес. назад | Торрент скачан:52 раза
Скачать  

31-01-2018 21:20 Последняя статья журналиста Скачать торрент  

Последняя статья журналистаГод выпуска: 2018
Страна: Россия
Жанр: Детектив, драма, криминальный фильм
Продолжительность: x ~ 00:53:00
Субтитры: отсутствуют

Режиссер: Евгений Сологалов, Виктор Татарский (II), Арменак Назикян



В ролях:

Дмитрий Паламарчук, Агния Дитковските, Александр Лыков, Карэн Бадалов, Владимир Стержаков, Иван Бровин, Сергей Апрельский, Сергей Бледных, Владислав Резник, Владимир Кузнецов (VI), Мария Феклистова, Игорь Грабузов, Алёна Кучкова, Оксана Сырцова, Виктор Чупров, Сергей Сафронов, Елена Бердникова, Даниил Кокин, Екатерина Рокотова, Сергей Интяков, Антон Чернов, Андрей Некрасов (II), Владимир Петров (VIII), Михаил Сидаш, Геша Меньшиков, Кирилл Стрелков, Юрий Николаенко, Елена Донина, Александр Иванов (VIII), Игорь Головин, Михаил Касапов, Валерий Малюшин, Дмитрий Сутырин, Александр Аравушкин, Николай Горшков

Описание:

Воспользовавшись гласностью в эпоху большой перестройки, молодой корреспондент «Псковской правды» Олег Верховцев начинает заниматься журналистскими расследованиями. Вместе со своими друзьями и коллегами Суворовым и Изотовым он разоблачает и снимает с должности несколько влиятельных людей. Когда в городе зверски убивают двух девушек, Верховцев не может остаться в стороне. Для сбора улик журналист вместе с друзьями-работниками секретных служб разрабатывает специальный план. Олег, как реальный преступник, садится в камеру для выяснения подробностей дела. Когда задача будет выполнена, его должны вытащить коллеги. Но первоначальный замысел Олега рушится. Его напарники неожиданно погибают в автокатастрофе, а недоброжелатели подтасовывают факты против него. Теперь Верховцеву грозят реальные 15 лет лишения свободы. В его невиновность не верит даже любимая жена Полина. И только мысли о мести помогают Олегу жить...

Качество: WEB-DL 1080p
Формат: MKV
Видео кодек: H.264
Аудио кодек: AC3

Видео: MPEG-4 AVC, ~ 6000 Кбит/с, 1920x1080, 25 кадр/с
Аудио#1: AC3, 2 ch, 192 Кбит/с
скриншот  скриншот  скриншот  

Общее
Уникальный идентификатор : 204134259282376438069591918102463943701 (0x9992D409069EB7B68E06D56E95309415)
Полное имя : D:\Poslednyaya.statya.zhurnalista.2017.WEB-DL.(1080p).Nikolspup\Poslednyaya.statya.zhurnalista.(01.seriya).2017.WEB-DL.(1080p).Nikolspup.mkv
Формат : Matroska
Версия формата : Version 4 / Version 2
Размер файла : 2,26 Гбайт
Продолжительность : 52 м. 25 с.
Режим общего битрейта : Постоянный
Общий поток : 6165 Кбит/сек
Дата кодирования : UTC 2018-01-21 16:26:21
Программа кодирования : mkvmerge v7.8.0 ('River Man') 32bit built on Mar 27 2015 16:18:02
Библиотека кодирования : libebml v1.3.1 + libmatroska v1.4.2

Видео
Идентификатор : 1
Формат : AVC
Формат/Информация : Advanced Video Codec
Профиль формата : High@L4.1
Параметр CABAC формата : Нет
Параметр ReFrames формата : 2 кадра
Идентификатор кодека : V_MPEG4/ISO/AVC
Продолжительность : 52 м. 25 с.
Вид битрейта : Постоянный
Битрейт : 6000 Кбит/сек
Ширина : 1920 пикселей
Высота : 1080 пикселей
Соотношение сторон : 16:9
Режим частоты кадров : Постоянный
Частота кадров : 25,000 кадров/сек
Стандарт вещания : PAL
Цветовое пространство : YUV
Субдискретизация насыщенности : 4:2:0
Битовая глубина : 8 бит
Тип развёртки : Прогрессивная
Бит/(Пиксели*Кадры) : 0.116
Размер потока : 2,14 Гбайт (95%)
Default : Да
Forced : Нет
Цветовой диапазон : Limited
Основные цвета : BT.709
Характеристики трансфера : BT.709
Коэффициенты матрицы : BT.709

Аудио
Идентификатор : 2
Формат : AC-3
Формат/Информация : Audio Coding 3
Расширение режима : CM (complete main)
Параметр Endianness формата : Big
Идентификатор кодека : A_AC3
Продолжительность : 52 м. 25 с.
Вид битрейта : Постоянный
Битрейт : 192 Кбит/сек
Каналы : 2 канала
Расположение каналов : Front: L R
Частота : 48,0 КГц
Частота кадров : 31,250 кадров/сек (1536 spf)
Метод сжатия : С потерями
Размер потока : 72,0 Мбайт (3%)
Default : Да
Forced : Нет

pb.wtf



Скачать Последняя статья журналиста через торрент http://i101.fastpic.ru/big/2018/0121/ee/c2fc72e60eab925f0e3a5faf92a407ee.png Скачать фильм Последняя статья журналиста через торрент бесплантно в хорошем качестве Описание: Воспользовавшись гласностью в эпоху большой перестройки, молодой корреспондент «Псковской правды» Олег Верховцев начинает ... 10 10 3
Info! Золотая раздача, скачанное не засчитывается.
Торрент: Зарегистрирован [2018-01-31 21:20] · скачан: 52 раз
Статус: √ проверено
Размер: 34.76 GB
Как cкачать? Как скачать Последняя статья журналиста через торрент | qTorrent

% Раздел Тема Автор DL S | L
Наши сериалы [ 9.92 GB ] Последняя статья журналиста / Сезон: 1 / Серии: 1-16 из 16 Арменак Назикян) [2018 HDTVRip] bober100 Скачать
1 | 0
Наши сериалы [ 10.49 GB ] Последняя статья журналиста / Сезон 1 / Серии 1-16 из 16 Арменак Назикян) [2018 ьный фильм WEBRip] bober100 Скачать
1 | 0
Наши сериалы [ 17.98 GB ] Последняя статья журналиста / Сезон 1 / Серии 1-16 из 16 Арменак Назикян) [2018 WEB-DL 720p] bober100 Скачать
1 | 0
Наши сериалы [ 10.42 GB ] Последняя статья журналиста / Сезон 1 / Серии 1-16 из 16 Арменак Назикян) [2018 ьный фильм WEB-DLRip] bober100 Скачать
1 | 0

28-11-2019 20:33  

Отключить всю рекламу на сайте

01-02-2018 08:22 Последняя статья журналиста Скачать торрент  

мне понравился сериалpb.wtf



    Дорогой пользователь! Огромная просьба, поблагодарите релизера, оцените раздачу и оставьте свои комментарий, если Вы скачали Последняя статья журналиста через торрент бесплатно! Внесите свою лепту в развитие PiratBit!
    Комментировать посты могут только пользователи прошедшие не сложную регистрацию
    Показать сообщения:    

    Последняя статья журналиста через торрент
    Скачать бесплатно Последняя статья журналиста
    Последняя статья журналиста скачать торрент
    Последняя статья журналиста смотреть онлайн
    Cкачать фильм Последняя статья журналиста бесплатно
    Последняя статья журналиста скачать торрент в хорошем качестве
    Последняя статья журналиста смотреть онлайн бесплатно в хорошем качестве


    Вы не можете начинать темы
    Вы не можете отвечать на сообщения
    Вы не можете редактировать свои сообщения
    Вы не можете удалять свои сообщения
    Вы не можете голосовать в опросах
    Вы не можете прикреплять файлы к сообщениям
    Вы можете скачивать файлы