Ссылка на приватное зеркало нашего сайта всего за 1$. Внимание количество ограничено!!!

2 сезон

iTunes

1 сезон

1

iTunes

iTunes

iTunes

1 сезон

RePack

30

ИГРА 18+

pack

ВАЖНО

!!Акция!!

Alien_RageХит недели

RePack

MK11
pack

Забери бонус

RePack

jed

!!Акция!!

Alien_Rage

RePack

fifa19

RePack

Assassins Creed: Odyssey

RePack

NEED FOR SPEED™ PAYBACK

4 сезон

9 сезон

Бесстыжие 9 сезон

Все сериалы

все сериалы на PB.wtf

RePack

FAR CRY 5
  

Между нами горы / The Mountain Between Us (Хани Абу-Ассад) [2017, боевик, триллер, драма, мелодрама, приключения, BDRip 1080p] DUB [Лицензия] pb.wtf

Между нами горы через торрент pb.wtf

Раздают: 1 [ 0 KB/s ]
Размер: 6.59 GB | Добавлен: 2 года 8 мес. назад | Торрент скачан:714 раз
Скачать  

01-02-2018 06:05 Между нами горы Скачать торрент  

Между нами горы / The Mountain Between UsГод выпуска: 2017
Страна: США
Жанр: боевик, триллер, драма, мелодрама, приключения
Продолжительность: 01:51:49
Перевод: Дублированный | Лицензия
Субтитры: русские форсированные

Режиссер: Хани Абу-Ассад

rating

В ролях:

Идрис Эльба, Кейт Уинслет, Бо Бриджес, Дермот Малруни, Линда Соренсон, Винсент Гэйл, Марси Т. Хаус, Ли Мадждуб, Андрес Джозеф

Описание:

Бен и Алекс, уцелевшие после авиакатастрофы, должны найти общий язык, чтобы выжить в экстремальных условиях далеких заснеженных гор. Когда они понимают, что на помощь к ним никто не придет, они вынуждены отправиться в опасный путь длиной в сотни километров. В борьбе за жизнь между двумя еще вчера незнакомыми людьми неожиданно возникает притяжение.

Качество: BDRip 1080p
Формат: MKV

Видео: MPEG-4 AVC, 8000 Кбит/с, 1920x804
Аудио: [RUS] AC3 | 48 KHz | 5.1 (Front: L С R Side: L R) + LFE | ~448 kbps
скриншот   скриншот   скриншот   скриншот  

Общее
Уникальный идентификатор : 175414313899731592590444036029540172630 (0x83F791673A050E38837FCDFADDAF8356)
Полное имя : H:The.Mountain.Between.Us.(2017).BDRip.1080p.MegaPeer.(qqss44).mkv
Формат : Matroska
Версия формата : Version 2
Размер файла : 6,59 Гбайт
Продолжительность : 1 ч. 51 м.
Общий поток : 8443 Кбит/сек
Название фильма : The.Mountain.Between.Us.(2017).BDRip.1080p.MegaPeer.(qqss44)
Дата кодирования : UTC 2018-01-31 22:24:01
Программа кодирования : mkvmerge v5.8.0 ('No Sleep / Pillow') built on Sep 2 2012 15:37:04
Библиотека кодирования : libebml v1.2.3 + libmatroska v1.3.0

Видео
Идентификатор : 1
Формат : AVC
Формат/Информация : Advanced Video Codec
Профиль формата : High@L4.1
Параметр CABAC формата : Да
Параметр ReFrames формата : 5 кадров
Идентификатор кодека : V_MPEG4/ISO/AVC
Продолжительность : 1 ч. 51 м.
Битрейт : 8000 Кбит/сек
Ширина : 1920 пикселей
Высота : 804 пикселя
Соотношение сторон : 2,40:1
Режим частоты кадров : Постоянный
Частота кадров : 23,976 (24000/1001) кадра/сек
Цветовое пространство : YUV
Субдискретизация насыщенности : 4:2:0
Битовая глубина : 8 бит
Тип развёртки : Прогрессивная
Бит/(Пиксели*Кадры) : 0.216
Размер потока : 6,11 Гбайт (93%)
Библиотека кодирования : x264 core 152 r2851kMod ba24899
Настройки программы : cabac=1 / ref=5 / deblock=1:-3:-3 / analyse=0x3:0x113 / me=umh / subme=11 / psy=1 / fade_compensate=0.00 / psy_rd=1.00:0.00 / mixed_ref=1 / me_range=32 / chroma_me=1 / trellis=2 / 8x8dct=1 / cqm=0 / deadzone=21,11 / fast_pskip=0 / chroma_qp_offset=-2 / threads=12 / lookahead_threads=2 / sliced_threads=0 / nr=0 / decimate=0 / interlaced=0 / bluray_compat=0 / constrained_intra=0 / bframes=8 / b_pyramid=2 / b_adapt=2 / b_bias=0 / direct=3 / weightb=1 / open_gop=0 / weightp=2 / keyint=240 / keyint_min=23 / scenecut=40 / intra_refresh=0 / rc_lookahead=40 / rc=2pass / mbtree=0 / bitrate=8000 / ratetol=1.0 / qcomp=0.65 / qpmin=0 / qpmax=69 / qpstep=4 / cplxblur=20.0 / qblur=0.5 / vbv_maxrate=50000 / vbv_bufsize=62500 / nal_hrd=none / filler=0 / ip_ratio=1.40 / pb_ratio=1.30 / aq=3:0.80
Язык : English
Default : Да
Forced : Нет

Аудио
Идентификатор : 2
Формат : AC-3
Формат/Информация : Audio Coding 3
Расширение режима : CM (complete main)
Параметр Endianness формата : Big
Идентификатор кодека : A_AC3
Продолжительность : 1 ч. 51 м.
Вид битрейта : Постоянный
Битрейт : 448 Кбит/сек
Каналы : 6 каналов
Расположение каналов : Front: L C R, Side: L R, LFE
Частота : 48,0 КГц
Частота кадров : 31,250 кадров/сек (1536 spf)
Метод сжатия : С потерями
Размер потока : 358 Мбайт (5%)
Язык : Russian
Default : Да
Forced : Нет

Текст
Идентификатор : 3
Формат : UTF-8
Идентификатор кодека : S_TEXT/UTF8
Идентификатор кодека/Информация : UTF-8 Plain Text
Заголовок : форсы
Язык : Russian
Default : Да
Forced : Нет

Меню
00:00:00.000 : en:Chapter 01
00:02:58.595 : en:Chapter 02
00:08:53.115 : en:Chapter 03
00:13:15.377 : en:Chapter 04
00:16:21.480 : en:Chapter 05
00:21:36.253 : en:Chapter 06
00:26:51.985 : en:Chapter 07
00:31:53.369 : en:Chapter 08
00:38:55.750 : en:Chapter 09
00:43:45.039 : en:Chapter 10
00:51:04.227 : en:Chapter 11
00:57:28.486 : en:Chapter 12
01:01:22.470 : en:Chapter 13
01:04:39.292 : en:Chapter 14
01:07:40.890 : en:Chapter 15
01:11:06.053 : en:Chapter 16
01:14:56.533 : en:Chapter 17
01:19:14.916 : en:Chapter 18
01:23:48.398 : en:Chapter 19
01:27:52.475 : en:Chapter 20
01:32:13.194 : en:Chapter 21
01:35:41.652 : en:Chapter 22
01:41:48.268 : en:Chapter 23
01:45:22.816 : en:Chapter 24

pb.wtf



Скачать Между нами горы через торрент http://i102.fastpic.ru/big/2018/0104/e0/12096844ffedb9e2d9653e5c31b1f6e0.jpg Скачать фильм Между нами горы через торрент бесплантно в хорошем качестве Описание: Бен и Алекс, уцелевшие после авиакатастрофы, должны найти общий язык, чтобы выжить в экстремальных условиях далеких заснеженных ... 9.9 10 17
Торрент: Зарегистрирован [2018-02-01 06:05] · скачан: 714 раз
Статус: √ проверено
Размер: 6.59 GB
Как cкачать? Как скачать Между нами горы через торрент | qTorrent

% Раздел Тема Автор DL S | L
Фильмы 2017 [DVDrip, WEB-DLRip, HDrip] (DUB, MVO) [ 1.95 GB ] Между нами горы / The Mountain Between Us [2017 BDRip-AVC] - ExKinoRay Enigma2010 Скачать
2 | 0
Фильмы 2017 [DVDrip, WEB-DLRip, HDrip] (DUB, MVO) [ 1.46 GB ] Между нами горы / The Mountain Between Us [2017 BDRip] - [] Twi7ter Скачать
1 | 0
Ultra HD (UHD: 2K, 4K, 8K) — видео сверхвысокой чёткости [ 30.95 GB ] Между нами горы / The Mountain Between Us [2017 UHD BDRemux 2160p] MVO [Paradox&Omskbird] + bober100 Скачать
1 | 0
Ultra HD (UHD: 2K, 4K, 8K) — видео сверхвысокой чёткости [ 31.93 GB ] Между нами горы / The Mountain Between Us [2017 UHD BDRemux 2160p] DUB + MVO sheker187 Скачать
1 | 0
Фильмы [HD 720p, 1080p] (Хороший звук DUB, MVO) [ 10.5 GB ] Между нами горы / The Mountain Between Us [2017 BDRip 1080p] MVO [Paradox&Omskbird] + bober100 Скачать
1 | 0
T Фильмы с украинским озвучиванием [ 7.85 GB ] Между нами горы / The Mountain Between Us [2017 BDRip 1080p] [Ukr DUB] [Line] killermax2013 Скачать
1 | 0
Фильмы 2017 [DVDrip, WEB-DLRip, HDrip] (DUB, MVO) [ 2.18 GB ] Между нами горы / The Mountain Between Us [2017 BDRip] - [] Twi7ter Скачать
1 | 0

28-11-2019 20:33  

Отключить всю рекламу на сайте

10-02-2018 15:32 Между нами горы Скачать торрент  

Шикарная игра актеров!!! Шикарный фильм!!! Спасибо!!!!pb.wtf



    Дорогой пользователь! Огромная просьба, поблагодарите релизера, оцените раздачу и оставьте свои комментарий, если Вы скачали Между нами горы через торрент бесплатно! Внесите свою лепту в развитие PiratBit!
    Комментировать посты могут только пользователи прошедшие не сложную регистрацию
    Показать сообщения:    

    Между нами горы через торрент
    Скачать бесплатно Между нами горы
    Между нами горы скачать торрент
    Между нами горы смотреть онлайн
    Cкачать фильм Между нами горы бесплатно
    Между нами горы скачать торрент в хорошем качестве
    Между нами горы смотреть онлайн бесплатно в хорошем качестве


    Вы не можете начинать темы
    Вы не можете отвечать на сообщения
    Вы не можете редактировать свои сообщения
    Вы не можете удалять свои сообщения
    Вы не можете голосовать в опросах
    Вы не можете прикреплять файлы к сообщениям
    Вы можете скачивать файлы