Ссылка на приватное зеркало нашего сайта всего за 1$. Внимание количество ограничено!!!

2 сезон

iTunes

1 сезон

1

iTunes

iTunes

iTunes

1 сезон

RePack

30

ИГРА 18+

pack

ВАЖНО

!!Акция!!

Alien_RageХит недели

RePack

MK11
pack

Забери бонус

RePack

jed

!!Акция!!

Alien_Rage

RePack

fifa19

RePack

Assassins Creed: Odyssey

RePack

NEED FOR SPEED™ PAYBACK

4 сезон

9 сезон

Бесстыжие 9 сезон

Все сериалы

все сериалы на PB.wtf

RePack

FAR CRY 5
  

Воронины / Сезон 20 / Серии 1-33 из 33 (Александр Жигалкин, Леонид Коновалов (II), Алексей Кирющенко) [2017, Комедия, семейный, SATRip] pb.wtf

Воронины через торрент pb.wtf

Раздают: 1 [ 0 KB/s ]
Размер: 9.69 GB | Добавлен: 2 года 8 мес. назад | Торрент скачан:161 раз
Скачать  

01-02-2018 07:32 Воронины Скачать торрент  

ВорониныГод выпуска: 2017
Страна: Россия
Жанр: Комедия, семейный
Продолжительность: 33 x ~ 00:24:00
Перевод: Не требуется
Субтитры: отсутствуют

Режиссер: Александр Жигалкин, Леонид Коновалов (II), Алексей Кирющенко



В ролях:

Георгий Дронов, Екатерина Волкова (II), Анна Фроловцева, Борис Клюев, Станислав Дужников, Юлия Куварзина, Мария Ильюхина, Кирилл Михин, Филипп Михин, Людмила Дмитриева, Андрей Ургант, Татьяна Орлова

Описание:

В новых сериях в многодетной семье Кости и Веры Ворониных появляется четвертый ребенок. Теперь, кроме старшей дочки Маши, близнецов Кири и Фили, они воспитывают новорожденную Люсю. Ворониных станет еще больше, а значит - в семье прибавится хлопот. В премьерных сериях приключения любимых персонажей Кости, Веры, Лени, Насти, Галины Ивановны и Николая Петровича не ограничатся пределами их квартир. Создатели придумали еще больше ситуаций, когда мужчины Воронины встают с дивана и отправляются на интересные прогулки. Сюрпризом для зрителей станет появление в проекте звезд в роли самих себя. Так, в одной из серий снялся известный певец, а теперь и телеведущий шоу СТС «Большая маленькая звезда» Николай Басков.

Качество: SATRip
Формат: AVI

Видео: XviD, ~ 1540 Кбит/с, 720х528
Аудио: AC3, 2 ch, 192 Кбит/с
скриншот   скриншот   скриншот   скриншот  

Общее
Полное имя : D:\торреннты\Voroniny.20.2017.SATRip.Files-x\01.Voroniny.20.2017.SATRip.Files-x.avi
Формат : AVI
Формат/Информация : Audio Video Interleave
Размер файла : 301 Мбайт
Продолжительность : 23 м. 53 с.
Общий поток : 1762 Кбит/сек
Программа кодирования : VirtualDubMod 1.5.10.3 | www.virtualdub-fr.org || (build 2550/release)
Библиотека кодирования : VirtualDubMod build 2550/release

Видео
Идентификатор : 0
Формат : MPEG-4 Visual
Профиль формата : Advanced Simple@L5
Параметр BVOP формата : 1
Параметр QPel формата : Нет
Параметр GMC формата : Без точки перехода
Параметр матрицы формата : Выборочная
Идентификатор кодека : XVID
Идентификатор кодека/Подсказка : XviD
Продолжительность : 23 м. 53 с.
Битрейт : 1561 Кбит/сек
Ширина : 720 пикселей
Высота : 528 пикселей
Соотношение сторон : 4:3
Частота кадров : 25,000 кадров/сек
Цветовое пространство : YUV
Субдискретизация насыщенности : 4:2:0
Битовая глубина : 8 бит
Тип развёртки : Прогрессивная
Метод сжатия : С потерями
Бит/(Пиксели*Кадры) : 0.164
Размер потока : 267 Мбайт (89%)
Библиотека кодирования : XviD 73

Аудио
Идентификатор : 1
Формат : AC-3
Формат/Информация : Audio Coding 3
Расширение режима : CM (complete main)
Параметр Endianness формата : Big
Идентификатор кодека : 2000
Продолжительность : 23 м. 53 с.
Вид битрейта : Постоянный
Битрейт : 192 Кбит/сек
Каналы : 2 канала
Расположение каналов : Front: L R
Частота : 48,0 КГц
Частота кадров : 31,250 кадров/сек (1536 spf)
Метод сжатия : С потерями
Размер потока : 32,8 Мбайт (11%)
Выравнивание : Разделение по промежуткам
Продолжительность промежутка : 40 мс. (1,00 видеокадр)
Время предзагрузки промежутка : 500 мс.

pb.wtf



Скачать Воронины через торрент http://i91.fastpic.ru/big/2017/0821/c1/a9bfcba1da2394b59a6af48d92dccec1.jpg Скачать фильм Воронины через торрент бесплантно в хорошем качестве Описание: В новых сериях в многодетной семье Кости и Веры Ворониных появляется четвертый ребенок. Теперь, кроме старшей дочки Маши, ... 10 10 2
Торрент: Зарегистрирован [2018-02-01 07:32] · скачан: 161 раз
Статус: √ проверено
Размер: 9.69 GB
Как cкачать? Как скачать Воронины через торрент | qTorrent

28-11-2019 20:33  

Отключить всю рекламу на сайте

24-08-2018 13:38 Воронины Скачать торрент  

встаньте на раздачуpb.wtf



    Дорогой пользователь! Огромная просьба, поблагодарите релизера, оцените раздачу и оставьте свои комментарий, если Вы скачали Воронины через торрент бесплатно! Внесите свою лепту в развитие PiratBit!
    Комментировать посты могут только пользователи прошедшие не сложную регистрацию
    Показать сообщения:    

    Воронины через торрент
    Скачать бесплатно Воронины
    Воронины скачать торрент
    Воронины смотреть онлайн
    Cкачать фильм Воронины бесплатно
    Воронины скачать торрент в хорошем качестве
    Воронины смотреть онлайн бесплатно в хорошем качестве


    Вы не можете начинать темы
    Вы не можете отвечать на сообщения
    Вы не можете редактировать свои сообщения
    Вы не можете удалять свои сообщения
    Вы не можете голосовать в опросах
    Вы не можете прикреплять файлы к сообщениям
    Вы можете скачивать файлы