Ссылка на приватное зеркало всего за 1$. Внимание количество ограничено!!!

OK

1+1

iTunes

мы

OK

1

WEB-DLRip

Джокер

Пифагор

Ведьмак / The Witcher сериал

iTunes

ПШазам

ОК

Оно 2

iTunes

30
pack

Вам бонус

ВАЖНО

!!Акция!!

Alien_RageХит недели

RePack

Resident Evil 21

ИГРА 18+

pack

RePack

jed

RePack

fifa19

RePack

Assassins Creed: Odyssey

RePack

NEED FOR SPEED™ PAYBACK

4 сезон

9 сезон

Бесстыжие 9 сезон

Все сериалы

все сериалы на PB.wtf

RePack

FAR CRY 5
  

DZIDZIO Контраба (Олег Борщевский) [2017, комедия, WEB-DL 720p] MVO [GreenРай Studio] pb.wtf

DZIDZIO Контраба через торрент pb.wtf

Размер: 2.57 GB | Добавлен: 1 год 11 мес. назад | Торрент скачан:86 раз
Скачать  

01-02-2018 08:27 DZIDZIO Контраба Скачать торрент  

DZIDZIO КонтрабаГод выпуска: 2017
Страна: Украина
Жанр: комедия
Продолжительность: 01:24:47
Перевод: Любительский (многоголосый) -
Субтитры: отсутствуют

Режиссер: Олег Борщевский



В ролях:

Михайло Хома, Алена Лавренюк, Назарий Гук, Орест Галицкий, Сергей Павук, Римма Зюбина, Владимир Горянский, Игорь Кондратюк, Алексей Вертинский

Описание:

Если троица идиотов решила заняться незаконным делом, жди беды. Они выросли на границе, поэтому найти лёгкие деньги для них не составляет труда. Однако когда на пути возникает красивая девушка, все планы идут прахом. По сравнению с приключениями парней американские горки покажутся лёгким покачиванием...

Качество: WEB-DL 720p
Формат: MKV
Видео кодек: H.264
Аудио кодек: AC3

Видео: 4000 Кбит/с, 1280x536
Аудио#1: AC3, 2 ch, 384 Кбит/с

скриншот   скриншот   скриншот  

Общее
Уникальный идентификатор : 235784368663739237717620442426022956040 (0xB1626AE80444B9DD8C4F5934EEE20C08)
Полное имя : D:\DziDzio.2017.P.WEB-DL.720p.GreenРай Studio.mkv
Формат : Matroska
Версия формата : Version 4 / Version 2
Размер файла : 2,57 Гбайт
Продолжительность : 1 ч. 24 м.
Режим общего битрейта : Постоянный
Общий поток : 4345 Кбит/сек
Дата кодирования : UTC 2018-01-31 16:12:28
Программа кодирования : mkvmerge v8.3.0 ('Over the Horizon') 64bit
Библиотека кодирования : libebml v1.3.1 + libmatroska v1.4.2

Видео
Идентификатор : 1
Формат : AVC
Формат/Информация : Advanced Video Codec
Профиль формата : Main@L3.1
Параметр CABAC формата : Да
Параметр ReFrames формата : 3 кадра
Параметр GOP формата : M=4, N=15
Идентификатор кодека : V_MPEG4/ISO/AVC
Продолжительность : 1 ч. 24 м.
Вид битрейта : Постоянный
Битрейт : 4000 Кбит/сек
Ширина : 1280 пикселей
Высота : 536 пикселей
Соотношение сторон : 2,40:1
Режим частоты кадров : Постоянный
Частота кадров : 24,000 кадра/сек
Стандарт вещания : NTSC
Цветовое пространство : YUV
Субдискретизация насыщенности : 4:2:0
Битовая глубина : 8 бит
Тип развёртки : Прогрессивная
Бит/(Пиксели*Кадры) : 0.243
Размер потока : 2,29 Гбайт (89%)
Язык : English
Default : Да
Forced : Нет
Цветовой диапазон : Limited

Аудио
Идентификатор : 2
Формат : AC-3
Формат/Информация : Audio Coding 3
Расширение режима : CM (complete main)
Параметр Endianness формата : Big
Идентификатор кодека : A_AC3
Продолжительность : 1 ч. 24 м.
Вид битрейта : Постоянный
Битрейт : 384 Кбит/сек
Каналы : 2 канала
Расположение каналов : Front: L R
Частота : 48,0 КГц
Частота кадров : 31,250 кадров/сек (1536 spf)
Метод сжатия : С потерями
Размер потока : 233 Мбайт (9%)
Default : Да
Forced : Нет

pb.wtf



Скачать DZIDZIO Контраба через торрент http://img12.lostpic.net/2018/02/01/3f3cd94201c9b0acf9062d926a06c0da.jpg Скачать фильм DZIDZIO Контраба через торрент бесплантно в хорошем качестве Описание: Если троица идиотов решила заняться незаконным делом, жди беды. Они выросли на границе, поэтому найти лёгкие деньги для них не ... 10 10 3
Торрент: Зарегистрирован [2018-02-01 08:27] · скачан: 86 раз
Статус: T временная
Размер: 2.57 GB
Как cкачать? Как скачать DZIDZIO Контраба через торрент | qTorrent

% Раздел Тема Автор DL S | L
T Фильмы с украинским озвучиванием [ 1.39 GB ] DZIDZIO Контрабас [2017 WEB-DLRip] killermax2013 Скачать
1 | 0
T Фильмы (мультфильмы) cо спонсором показа (Новинки AVI/MKV) [ 1.37 GB ] DZIDZIO Контраба [2017 WEB-DLRip] MVO [GreenРай Studio] bober100 Скачать
1 | 0
T Фильмы с украинским озвучиванием [ 1.45 GB ] DZIDZIO Контрабас [2017 WEB-DLRip] [Официальный звук] Twi7ter Скачать
1 | 0

28-11-2019 20:33  

Отключить всю рекламу на сайте

    Дорогой пользователь! Огромная просьба, поблагодарите релизера, оцените раздачу и оставьте свои комментарий, если Вы скачали DZIDZIO Контраба через торрент бесплатно! Внесите свою лепту в развитие PiratBit!
    Комментировать посты могут только пользователи прошедшие не сложную регистрацию
    Показать сообщения:    

    DZIDZIO Контраба через торрент
    Скачать бесплатно DZIDZIO Контраба
    DZIDZIO Контраба скачать торрент
    DZIDZIO Контраба смотреть онлайн
    Cкачать фильм DZIDZIO Контраба бесплатно
    DZIDZIO Контраба скачать торрент в хорошем качестве
    DZIDZIO Контраба смотреть онлайн бесплатно в хорошем качестве


    Вы не можете начинать темы
    Вы не можете отвечать на сообщения
    Вы не можете редактировать свои сообщения
    Вы не можете удалять свои сообщения
    Вы не можете голосовать в опросах
    Вы не можете прикреплять файлы к сообщениям
    Вы можете скачивать файлы