2 сезон

iTunes

MVO

1

2 сезон

iTunes

iTunes

1 сезон

RePack

30

Новинка

ВАЖНО

ИГРА 18+

pack

RePack

MK11
pack

Легкие деньги

RePack

jed

RePack

fifa19

RePack

RDR2

RePack

NEED FOR SPEED™ PAYBACK

4 сезон

9 сезон

Бесстыжие 9 сезон

Все сериалы

все сериалы на PB.wtf

RePack

FAR CRY 5

Anonymous, доброй ночи, мы не успеваем собрать деньги на оплату серверов за декабрь и январь, помогите нам пожалуйста в это трудное время. В качестве благодарности мы отключим Вам всю рекламу на сайте (укажите свой ник в строку Ваше имя)!

×
  
Magnet ссылка

Возвращение волшебников: Алекс против Алекс / The Wizards Return: Alex vs. Alex (Виктор Гонсалес / Victor Gonzalez) [2013, США, фэнтези, драма, комедия, приключения, семейный, WEB-DLRip от AVP Studio] Dub + Original (eng) + Sub (rus) pb.wtf

Возвращение волшебников: Алекс против Алекс через торрент pb.wtf

Размер: 749 MB | Добавлен: 2 года 11 мес. назад | Торрент скачан:17 раз
Скачать  

01-02-2018 09:55 Возвращение волшебников: Алекс против Алекс Скачать торрент  

Возвращение волшебников: Алекс против Алекс
The Wizards Return: Alex vs. Alex
«Everything is not what it seems»
Страна: США
Производство: It's a Laugh Productions

Жанр: фэнтези, драма, комедия, приключения, семейный
Год выпуска: 2013
Продолжительность: 00:58:40

Перевод: Профессиональный (дублированный)
Оригинальная аудиодорожка: английский
Cубтитры: русский

Режиссер: Виктор Гонсалес / Victor Gonzalez

В ролях:
Селена Гомес, Джейк Т. Остин, Дженнифер Стоун, Грегг Салкин, Бо Мирчофф, Мария Кэнелс-Баррера, Дэвид ДеЛуис, Наталия Ногулич, Антонелла Лентини, Джек Доннер...

Описание:
Волшебная семейка Руссо — снова в центре внимания. В одно прекрасное лето Тереза, Джерри и Макс с друзьями Харпер и Мейсоном отправляются в солнечную Италию. Но Алекс остается дома, желая доказать близким, что она взрослая, и у нее своя жизнь. Вот только экспериментируя с заклинаниями, она случайно разделяет свою душу пополам. Наружу выходит злая Алекс, мечтающая захватить мир. А добрая кудесница вынуждена не только её усмирять, но и лететь через океан, чтобы спасти близких от чар злодейки.

Исходник: WEB-DL 1080p
Тип релиза: WEB-DLRip
Контейнер: AVI

Видео: 720x400 (16:9), 23,976 fps, XviD ~ 1383 kbps avg, 0.200 bit/pixel
Аудио: 48 kHz, Dolby Digital AC3 2.0, 192 kbps Дублированный
Аудио: 48 kHz, Dolby Digital AC3 2.0, 192 kbps Английский
Формат субтитров: SoftSub (srt) Русский

Раздача от:
Общее
Полное имя : Bitva.volshebnikov.Aleks.protiv.Aleks.2013.WEB-DLRip_[New-team]_by_AVP_Studio.avi
Формат : AVI
Формат/Информация : Audio Video Interleave
Размер файла : 749 Мбайт
Продолжительность : 58 м. 40 с.
Общий поток : 1785 Кбит/сек

Видео
Идентификатор : 0
Формат : MPEG-4 Visual
Профиль формата : Advanced Simple@L5
Настройки формата : BVOP1 / Custom Matrix
Параметр BVOP формата : 1
Параметр QPel формата : Нет
Параметр GMC формата : Без точки перехода
Параметр матрицы формата : Выборочная
Идентификатор кодека : XVID
Идентификатор кодека/Подсказка : XviD
Продолжительность : 58 м. 40 с.
Битрейт : 1383 Кбит/сек
Ширина : 720 пикселей
Высота : 400 пикселей
Соотношение сторон : 16:9
Частота кадров : 23,976 (23976/1000) кадра/сек
Цветовое пространство : YUV
Субдискретизация насыщенности : 4:2:0
Битовая глубина : 8 бит
Тип развёртки : Прогрессивная
Метод сжатия : С потерями
Бит/(Пиксели*Кадры) : 0.200
Размер потока : 581 Мбайт (77%)
Библиотека кодирования : XviD 73

Аудио #1
Идентификатор : 1
Формат : AC-3
Формат/Информация : Audio Coding 3
Идентификатор кодека : 2000
Продолжительность : 58 м. 39 с.
Вид битрейта : Постоянный
Битрейт : 192 Кбит/сек
Каналы : 2 канала
Расположение каналов : Front: L R
Частота : 48,0 КГц
Частота кадров : 31,250 кадров/сек (1536 SPF)
Битовая глубина : 16 бит
Метод сжатия : С потерями
Размер потока : 80,6 Мбайт (11%)
Выравнивание : Соединение по промежуткам
Продолжительность промежутка : 32 мс. (0,77 видеокадр)

Аудио #2
Идентификатор : 2
Формат : AC-3
Формат/Информация : Audio Coding 3
Идентификатор кодека : 2000
Продолжительность : 58 м. 39 с.
Вид битрейта : Постоянный
Битрейт : 192 Кбит/сек
Каналы : 2 канала
Расположение каналов : Front: L R
Частота : 48,0 КГц
Частота кадров : 31,250 кадров/сек (1536 SPF)
Битовая глубина : 16 бит
Метод сжатия : С потерями
Размер потока : 80,6 Мбайт (11%)
Выравнивание : Соединение по промежуткам
Продолжительность промежутка : 32 мс. (0,77 видеокадр)
pb.wtf



Скачать Возвращение волшебников: Алекс против Алекс через торрент http://i100.fastpic.ru/big/2018/0201/f2/10d9c0a2f0412ba17dfdebf6a7ebd6f2.png Скачать фильм Возвращение волшебников: Алекс против Алекс через торрент бесплантно в хорошем качестве Описание:Волшебная семейка Руссо — снова в центре внимания. В одно прекрасное лето Тереза, Джерри и Макс с друзьями Харпер и Мейсоном ... 5 10 1
Info! Золотая раздача, скачанное не засчитывается.
Торрент: Зарегистрирован [2018-02-01 09:55] · скачан: 17 раз
Статус: √ проверено
Размер: 749 MB
Как cкачать? Как скачать Возвращение волшебников: Алекс против Алекс через торрент | UTorrent

% Раздел Тема Автор DL S | L
Фильмы 2013 [DVDrip, WEB-DLRip, HDrip] [ 1.09 GB ] Возвращение волшебников: Алекс против Алекс / The Wizards Return: Alex vs. Alex [2013 WEB-DLRip-AVC от AVP Studio] Dub + Original + Sub AVP Studio Скачать
1 | 0
Фильмы 2013 [DVDrip, WEB-DLRip, HDrip] [ 1.59 GB ] Возвращение волшебников: Алекс против Алекс / The Wizards Return: Alex vs. Alex [2013 DVB DUB] кэп Скачать
1 | 0

28-11-2019 20:33  

Отключить всю рекламу на сайте

01-02-2018 13:00 Возвращение волшебников: Алекс против Алекс Скачать торрент  

Топик был перенесен из форума Кино СССР в форум Фильмы 2013 [DVDrip, WEB-DLRip, HDrip]


schultzpb.wtf



    Дорогой пользователь! Огромная просьба, поблагодарите релизера, оцените раздачу и оставьте свои комментарий, если Вы скачали Возвращение волшебников: Алекс против Алекс через торрент бесплатно! Внесите свою лепту в развитие PiratBit!
    Комментировать посты могут только пользователи прошедшие не сложную регистрацию
    Показать сообщения:    

    Возвращение волшебников: Алекс против Алекс через торрент
    Скачать бесплатно Возвращение волшебников: Алекс против Алекс
    Возвращение волшебников: Алекс против Алекс скачать торрент
    Возвращение волшебников: Алекс против Алекс смотреть онлайн
    Cкачать фильм Возвращение волшебников: Алекс против Алекс бесплатно
    Возвращение волшебников: Алекс против Алекс скачать торрент в хорошем качестве
    Возвращение волшебников: Алекс против Алекс смотреть онлайн бесплатно в хорошем качестве


    Вы не можете начинать темы
    Вы не можете отвечать на сообщения
    Вы не можете редактировать свои сообщения
    Вы не можете удалять свои сообщения
    Вы не можете голосовать в опросах
    Вы не можете прикреплять файлы к сообщениям
    Вы можете скачивать файлы