Ссылка на приватное зеркало всего за 1$. Внимание количество ограничено!!!

OK

1+1

iTunes

мы

OK

1

WEB-DLRip

Джокер

Пифагор

Ведьмак / The Witcher сериал

Лицензия

ПШазам

ОК

Оно 2

iTunes

30
pack

Вам бонус

ВАЖНО

!!Акция!!

Alien_RageХит недели

RePack

Resident Evil 21

ИГРА 18+

pack

RePack

jed

!!Акция!!

Alien_Rage

RePack

fifa19

RePack

Assassins Creed: Odyssey

RePack

NEED FOR SPEED™ PAYBACK

4 сезон

9 сезон

Бесстыжие 9 сезон

Все сериалы

все сериалы на PB.wtf

RePack

FAR CRY 5
  

Дом на продажу / The Open House (Мэтт Энджел / Matt Angel, Сюзанна Кут / Suzanne Coote) [2018, Ужасы, триллер, WEBRip 720p] [MVO] (NewStudio) pb.wtf

Дом на продажу через торрент pb.wtf

Размер: 1.85 GB | Добавлен: 1 год 11 мес. назад | Торрент скачан:184 раза
Скачать  

01-02-2018 13:07 Дом на продажу Скачать торрент  

Дом на продажу/The Open House
«Нельзя запереть то! Что уже внутри!»
Год выпуска: 2018
Страна: США
Жанр: ужасы, триллер
Продолжительность: 01:34:27
Перевод: Профессиональный [многоголосый] [NewStudio]
Субтитры:Английские, португальские, французские, немецкие, итальянские
Режиссер: Мэтт Энджел, Suzanne Coote
В ролях:

Дилан Миннетт (Logan Wallace), Piercey Dalton (Naomi Wallace), Шариф Аткинс (Chris), Патрисия Бетун (Martha), Мэтт Энджел (Cop #1), Suzanne Coote (Waitress), Аарон Абрамс (Brian Wallace), Kathryn Beckwith (Joannie McAllister), Этан Кашинг (Tommy), Эдвард Олсон (The Man in Black), Ли Паркер (Ed), Пол Рэй (Plumber)
Описание:
После смерти мужа Наоми с сыном-подростком Логаном остаются без средств к существованию, и сестра женщины предлагает им пожить в своем огромном особняке посреди леса. Дом выставлен на продажу, поэтому новые жильцы должны периодически оставлять ключи и дом риэлторам на целый день. Скорбя о потере, мать с сыном стараются не обращать внимание на некоторые странности жилища, что вскоре может выйти им боком.
Мировая премьера: 19 января 2018
rating
Качество: WEBRip 720p
Формат: MKV
Видео кодек: AVC
Аудио кодек: AC3
Видео: AVC, 1280x532 (2.40:1), 1983 kbps, 23,976 fps, 0,121 bpp
Аудио №1: AC3 / 5.1 / 48 kHz / 384 kbps / Русский
Аудио №2: AC3 / 5.1 / 48 kHz / 384 kbps / Английский
Релиз без рекламы

Многоголосое профессиональное закадровое озвучание: NewStudio.TV
Перевод: Ирина Гвозденко
Очистка от рекламы: Atla22

General
Format : Matroska
Format version : Version 2
File size : 1.85 GiB
Duration : 1 h 34 min
Overall bit rate : 2 807 kb/s
Movie name : The Open House
Encoded date : UTC 2018-01-29 11:53:20
Writing application : mkvmerge v7.8.0 ('River Man') 32bit built on Apr 3 2015 12:11:22
Writing library : libebml v1.3.1 + libmatroska v1.4.2

Video
ID : 1
Format : AVC
Format/Info : Advanced Video Codec
Format profile : High@L4.1
Format settings, CABAC : Yes
Format settings, ReFrames : 5 frames
Codec ID : V_MPEG4/ISO/AVC
Duration : 1 h 34 min
Bit rate : 1 983 kb/s
Width : 1 280 pixels
Height : 532 pixels
Display aspect ratio : 2.40:1
Frame rate mode : Constant
Frame rate : 23.976 (24000/1001) FPS
Color space : YUV
Chroma subsampling : 4:2:0
Bit depth : 8 bits
Scan type : Progressive
Bits/(Pixel*Frame) : 0.121
Stream size : 1.31 GiB (71%)
Writing library : x264 core 155 r2901 7d0ff22
Encoding settings : cabac=1 / ref=5 / deblock=1:-3:-3 / analyse=0x3:0x113 / me=umh / subme=8 / psy=1 / psy_rd=1.00:0.15 / mixed_ref=1 / me_range=16 / chroma_me=1 / trellis=2 / 8x8dct=1 / cqm=0 / deadzone=21,11 / fast_pskip=0 / chroma_qp_offset=-2 / threads=12 / lookahead_threads=2 / sliced_threads=0 / nr=0 / decimate=1 / interlaced=0 / bluray_compat=0 / constrained_intra=0 / bframes=3 / b_pyramid=2 / b_adapt=2 / b_bias=0 / direct=3 / weightb=1 / open_gop=0 / weightp=2 / keyint=240 / keyint_min=23 / scenecut=40 / intra_refresh=0 / rc_lookahead=50 / rc=crf / mbtree=1 / crf=18.0 / qcomp=0.60 / qpmin=0 / qpmax=69 / qpstep=4 / ip_ratio=1.40 / aq=3:0.80
Language : English
Default : Yes
Forced : No

Audio #1
ID : 2
Format : AC-3
Format/Info : Audio Coding 3
Mode extension : CM (complete main)
Format settings, Endianness : Big
Codec ID : A_AC3
Duration : 1 h 34 min
Bit rate mode : Constant
Bit rate : 384 kb/s
Channel(s) : 6 channels
Channel positions : Front: L C R, Side: L R, LFE
Sampling rate : 48.0 kHz
Frame rate : 31.250 FPS (1536 spf)
Compression mode : Lossy
Stream size : 259 MiB (14%)
Language : Russian
Default : Yes
Forced : No

Audio #2
ID : 3
Format : AC-3
Format/Info : Audio Coding 3
Mode extension : CM (complete main)
Format settings, Endianness : Big
Codec ID : A_AC3
Duration : 1 h 34 min
Bit rate mode : Constant
Bit rate : 384 kb/s
Channel(s) : 6 channels
Channel positions : Front: L C R, Side: L R, LFE
Sampling rate : 48.0 kHz
Frame rate : 31.250 FPS (1536 spf)
Compression mode : Lossy
Stream size : 259 MiB (14%)
Language : English
Default : No
Forced : No

Text #1
ID : 4
Format : UTF-8
Codec ID : S_TEXT/UTF8
Codec ID/Info : UTF-8 Plain Text
Language : English
Default : No
Forced : No

Text #2
ID : 5
Format : UTF-8
Codec ID : S_TEXT/UTF8
Codec ID/Info : UTF-8 Plain Text
Language : Portuguese
Default : No
Forced : No

Text #3
ID : 6
Format : UTF-8
Codec ID : S_TEXT/UTF8
Codec ID/Info : UTF-8 Plain Text
Language : French
Default : No
Forced : No

Text #4
ID : 7
Format : UTF-8
Codec ID : S_TEXT/UTF8
Codec ID/Info : UTF-8 Plain Text
Language : German
Default : No
Forced : No

Text #5
ID : 8
Format : UTF-8
Codec ID : S_TEXT/UTF8
Codec ID/Info : UTF-8 Plain Text
Language : Italian
Default : No
Forced : No
pb.wtf



Скачать Дом на продажу через торрент http://lostpix.com/img/2018-02/01/slm9h35zau74oa7z1xylzrb0d.jpg Скачать фильм Дом на продажу через торрент бесплантно в хорошем качестве Описание: После смерти мужа Наоми с сыном-подростком Логаном остаются без средств к существованию, и сестра женщины предлагает им пожить в ... 8.8 10 6
Торрент: Зарегистрирован [2018-02-01 13:07] · скачан: 184 раз
Статус: T временная
Размер: 1.85 GB
Как cкачать? Как скачать Дом на продажу через торрент | qTorrent

% Раздел Тема Автор DL S | L
Фильмы 2018 [DVDrip, WEB-DLRip, HDrip] (DUB, MVO) [ 1.37 GB ] Дом на продажу / The Open House [2018 WEBRip] MVO [Jaskier] bober100 Скачать
1 | 0
Фильмы (WEB-DL 720p, 1080p) [ 2.89 GB ] Дом на продажу / The Open House [2018 WEBRip 1080p] MVO [Jaskier] bober100 Скачать
3 | 0
R.G. Resident & PiratVoice - Фильмы, Видео [ 1.45 GB ] Дом на продажу / The Open House [2018 WEBRip ] MVO [NewStudio] -Lexx- Скачать
1 | 0

28-11-2019 20:33  

Отключить всю рекламу на сайте

01-02-2018 14:49 Дом на продажу Скачать торрент  

Топик был перенесен из форума Фильмы 2018 [DVDrip, WEB-DLRip, HDrip] (DUB, MVO) в форум Фильмы (WEB-DL 720p, 1080p)


schultzpb.wtf



01-02-2018 15:55 Дом на продажу Скачать торрент  

Фамилию актера (главного героя) вроде с ошибками написали pb.wtf



01-02-2018 16:08 Дом на продажу Скачать торрент  

Да уж точно подметил sarcasticpb.wtf



    Дорогой пользователь! Огромная просьба, поблагодарите релизера, оцените раздачу и оставьте свои комментарий, если Вы скачали Дом на продажу через торрент бесплатно! Внесите свою лепту в развитие PiratBit!
    Комментировать посты могут только пользователи прошедшие не сложную регистрацию
    Показать сообщения:    

    Дом на продажу через торрент
    Скачать бесплатно Дом на продажу
    Дом на продажу скачать торрент
    Дом на продажу смотреть онлайн
    Cкачать фильм Дом на продажу бесплатно
    Дом на продажу скачать торрент в хорошем качестве
    Дом на продажу смотреть онлайн бесплатно в хорошем качестве


    Вы не можете начинать темы
    Вы не можете отвечать на сообщения
    Вы не можете редактировать свои сообщения
    Вы не можете удалять свои сообщения
    Вы не можете голосовать в опросах
    Вы не можете прикреплять файлы к сообщениям
    Вы можете скачивать файлы