Ссылка на приватное зеркало всего за 1$. Внимание количество ограничено!!!

OK

1+1

iTunes

мы

OK

1

WEB-DLRip

Джокер

Пифагор

Ведьмак / The Witcher сериал

iTunes

ПШазам

ОК

Оно 2

iTunes

30
pack

Вам бонус

ВАЖНО

!!Акция!!

Alien_RageХит недели

RePack

Resident Evil 21

ИГРА 18+

pack

RePack

jed

RePack

fifa19

RePack

Assassins Creed: Odyssey

RePack

NEED FOR SPEED™ PAYBACK

4 сезон

9 сезон

Бесстыжие 9 сезон

Все сериалы

все сериалы на PB.wtf

RePack

FAR CRY 5
  

Тысяча торчков / A Thousand Junkies (Томми Свердлоу) [2017, драма, комедия, WEB-DL 720p] MVO ["Синема УС"] pb.wtf

Тысяча торчков через торрент pb.wtf

Размер: 2.91 GB | Добавлен: 1 год 11 мес. назад | Торрент скачан:112 раз
Скачать  

01-02-2018 16:23 Тысяча торчков Скачать торрент  

Тысяча торчков / A Thousand JunkiesГод выпуска: 2017
Страна: США
Жанр: драма, комедия
Продолжительность: 01:22:22
Перевод: Любительский (многоголосый) ["Синема УС"]
Субтитры: отсутствуют

Режиссер: Томми Свердлоу

rating

В ролях:

Патриция Кастело Бранко, Деннис Сиснерос, Дэвид Дармштеттер, Динарте де Фрейтас, Блейк Херон, Люсинда Дженни, Эрик Джонн Пристли, Эдди Римада

Описание:

Три зависимых от героина друга ищут новый способ получения дозы после проблем с их старым диллером. Во время поисков их планы становятся более абсурдными и смешными, но товарищи всё равно изоо всех сил стараются найти новый тайник с желанным сокровищем.

Качество: WEB-DL 720p
Формат: MKV
Видео кодек: H.264
Аудио кодек: AC3

Видео: 4674 kb/s, 1280x544
Аудио: AC3, 2 ch, 384 kbps

скриншот  скриншот  скриншот  

Общее
Уникальный идентификатор : 182653359417042172101690097770380616658 (0x8969C1E738E14512943D01AABFC763D2)
Полное имя : D:\A.Thousand.Junkies.2017.P.WEB-DL.720p_KOSHARA.mkv
Формат : Matroska
Версия формата : Version 2
Размер файла : 2,91 Гбайт
Продолжительность : 1 ч. 22 м.
Режим общего битрейта : Переменный
Общий поток : 5060 Кбит/сек
Дата кодирования : UTC 2018-02-01 02:15:27
Программа кодирования : mkvmerge v8.3.0 ('Over the Horizon') 64bit
Библиотека кодирования : libebml v1.3.1 + libmatroska v1.4.2

Видео
Идентификатор : 1
Формат : AVC
Формат/Информация : Advanced Video Codec
Профиль формата : High@L4.1
Параметр CABAC формата : Да
Параметр ReFrames формата : 4 кадра
Идентификатор кодека : V_MPEG4/ISO/AVC
Продолжительность : 1 ч. 22 м.
Вид битрейта : Переменный
Битрейт : 4675 Кбит/сек
Максимальный битрейт : 5000 Кбит/сек
Ширина : 1280 пикселей
Высота : 544 пикселя
Соотношение сторон : 2,35:1
Режим частоты кадров : Постоянный
Частота кадров : 23,976 (24000/1001) кадра/сек
Стандарт вещания : Component
Цветовое пространство : YUV
Субдискретизация насыщенности : 4:2:0
Битовая глубина : 8 бит
Тип развёртки : Прогрессивная
Бит/(Пиксели*Кадры) : 0.274
Размер потока : 2,63 Гбайт (90%)
Default : Да
Forced : Нет
Цветовой диапазон : Limited
Основные цвета : BT.709
Характеристики трансфера : BT.709
Коэффициенты матрицы : BT.709

Аудио
Идентификатор : 2
Формат : AC-3
Формат/Информация : Audio Coding 3
Расширение режима : CM (complete main)
Параметр Endianness формата : Big
Идентификатор кодека : A_AC3
Продолжительность : 1 ч. 22 м.
Вид битрейта : Постоянный
Битрейт : 384 Кбит/сек
Каналы : 2 канала
Расположение каналов : Front: L R
Частота : 48,0 КГц
Частота кадров : 31,250 кадров/сек (1536 spf)
Метод сжатия : С потерями
Размер потока : 226 Мбайт (8%)
Default : Да
Forced : Нет

pb.wtf



Скачать Тысяча торчков через торрент http://img12.lostpic.net/2018/02/01/295275787340a13c5ac9a49e77e76249.jpg Скачать фильм Тысяча торчков через торрент бесплантно в хорошем качестве Описание: Три зависимых от героина друга ищут новый способ получения дозы после проблем с их старым диллером. Во время поисков их планы ... 10 10 8
Торрент: Зарегистрирован [2018-02-01 16:23] · скачан: 112 раз
Статус: T временная
Размер: 2.91 GB
Как cкачать? Как скачать Тысяча торчков через торрент | qTorrent

% Раздел Тема Автор DL S | L
T Фильмы (мультфильмы) cо спонсором показа (Новинки AVI/MKV) [ 1.37 GB ] Тысяча торчков / A Thousand Junkies [2017 WEB-DLRip] MVO ["Синема УС"] bober100 Скачать
1 | 0

28-11-2019 20:33  

Отключить всю рекламу на сайте

    Дорогой пользователь! Огромная просьба, поблагодарите релизера, оцените раздачу и оставьте свои комментарий, если Вы скачали Тысяча торчков через торрент бесплатно! Внесите свою лепту в развитие PiratBit!
    Комментировать посты могут только пользователи прошедшие не сложную регистрацию
    Показать сообщения:    

    Тысяча торчков через торрент
    Скачать бесплатно Тысяча торчков
    Тысяча торчков скачать торрент
    Тысяча торчков смотреть онлайн
    Cкачать фильм Тысяча торчков бесплатно
    Тысяча торчков скачать торрент в хорошем качестве
    Тысяча торчков смотреть онлайн бесплатно в хорошем качестве


    Вы не можете начинать темы
    Вы не можете отвечать на сообщения
    Вы не можете редактировать свои сообщения
    Вы не можете удалять свои сообщения
    Вы не можете голосовать в опросах
    Вы не можете прикреплять файлы к сообщениям
    Вы можете скачивать файлы