Ссылка на приватное зеркало нашего сайта всего за 1$. Внимание количество ограничено!!!

2 сезон

iTunes

1 сезон

1

2 сезон

2 сезон

iTunes

1 сезон

RePack

30

Новинка

ВАЖНО

ИГРА 18+

pack

RePack

MK11
pack

Забери бонус

RePack

jed

!!Акция!!

Alien_Rage

RePack

fifa19

RePack

Assassins Creed: Odyssey

RePack

NEED FOR SPEED™ PAYBACK

4 сезон

9 сезон

Бесстыжие 9 сезон

Все сериалы

все сериалы на PB.wtf

RePack

FAR CRY 5
  

Хэппи / Happy! / Сезон: 1 / Серии: 1-8 из 8 (Брайан Тейлор) [2017, Боевик, драма, криминал, фэнтези, HDTVRip] MVO [ColdFilm] pb.wtf

Хэппи через торрент pb.wtf

Размер: 3.42 GB | Добавлен: 2 года 10 мес. назад | Торрент скачан:39 раз
Скачать  

01-02-2018 16:29 Хэппи Скачать торрент  

Хэппи / Happy!Год выпуска: 2017
Страна: США
Жанр: Боевик, драма, криминал, фэнтези
Продолжительность: 8 x ~ 00:45:00
Перевод: Любительский (многоголосый) - [ColdFilm]
Субтитры: отсутствуют

Режиссер: Брайан Тейлор

rating

В ролях:

Кристофер Мелони, Патрик Фишлер, Бобби Мойнахан, Ричи Костер, Забрина Гевара, Джозеф Д. Рейтман, Джо Перрино, Лили Мирожник, Гас Хэлпер, Кристофер Фицджералд

Описание:

Ник Сакс, вечно пьяный бывший полицейский, становится наёмным убийцей. Он плывёт по течению в мире случайных смертей, секса и предательства. Когда одно из его дел идёт наперекосяк, нетрезвая жизнь Сакса навсегда меняется с появлением крошечного, вечно положительного, воображаемого голубого крылатого коня.

Качество: HDTVRip
Формат: AVI

Видео: XviD, ~ 1400 Кбит/с, 720x400
Аудио: Русский (AC3, 2 ch, 192 Кбит/с)
скриншот   скриншот   скриншот  

Общее
Полное имя : D:\Happy\Happy.s01e01.avi
Формат : AVI
Формат/Информация : Audio Video Interleave
Размер файла : 500 Мбайт
Продолжительность : 43 м. 24 с.
Общий поток : 1610 Кбит/сек
Программа кодирования : VirtualDubMod 1.5.10.2 (build 2540/release)
Библиотека кодирования : VirtualDubMod build 2540/release

Видео
Идентификатор : 0
Формат : xvid
Идентификатор кодека : xvid
Продолжительность : 43 м. 24 с.
Битрейт : 1409 Кбит/сек
Ширина : 720 пикселей
Высота : 400 пикселей
Соотношение сторон : 16:9
Частота кадров : 24,000 кадра/сек
Бит/(Пиксели*Кадры) : 0.204
Размер потока : 438 Мбайт (87%)

Аудио
Идентификатор : 1
Формат : AC-3
Формат/Информация : Audio Coding 3
Расширение режима : CM (complete main)
Параметр Endianness формата : Big
Идентификатор кодека : 2000
Продолжительность : 43 м. 24 с.
Вид битрейта : Постоянный
Битрейт : 192 Кбит/сек
Каналы : 2 канала
Расположение каналов : Front: L R
Частота : 48,0 КГц
Частота кадров : 31,250 кадров/сек (1536 spf)
Метод сжатия : С потерями
Задержка видео : 21 мс.
Размер потока : 59,6 Мбайт (12%)
Выравнивание : Разделение по промежуткам
Продолжительность промежутка : 42 мс. (1,00 видеокадр)
Время предзагрузки промежутка : 500 мс.
pb.wtf



Скачать Хэппи через торрент http://i100.fastpic.ru/big/2017/1209/eb/18ee4b9a105a08d3fd3df049d7c256eb.png Скачать фильм Хэппи через торрент бесплантно в хорошем качестве Описание: Ник Сакс, вечно пьяный бывший полицейский, становится наёмным убийцей. Он плывёт по течению в мире случайных смертей, секса и ... 10 10 3
Торрент: Зарегистрирован [2018-02-01 16:29] · скачан: 39 раз
Статус: √ проверено
Размер: 3.42 GB
Как cкачать? Как скачать Хэппи через торрент | qTorrent

% Раздел Тема Автор DL S | L
Зарубежные сериалы [ 4.32 GB ] Хэппи / Happy! / Сезон: 1 / Серии: 1-8 из 8 [2017 HDRip] DUB [ТВ3] bober100 Скачать
2 | 0
Зарубежные сериалы [ 65.42 GB ] Хэппи! / Happy! / Сезон: 1 / Серии: 1-8 из 8 [2017 BDRemux 1080p] DVO [Кубик в Кубе] bober100 Скачать
1 | 0
Зарубежные сериалы [ 4.32 GB ] Хэппи / Happy! / Сезон 1 / Серия 1-8 из 8 [2017 WEB-DLRip] [DVO] killermax2013 Скачать
1 | 0
Зарубежные сериалы [ 14.78 GB ] Хэппи / Happy! / Сезон 1 / Серия 1-8 из 8 [2017 WEB-DL 1080p] killermax2013 Скачать
1 | 0
Зарубежные сериалы [ 7 GB ] Хэппи / Happy! / Сезон: 1 / Серии: 1-8 из 8 [2017 WEB-DLRip] MVO [LostFilm] bober100 Скачать
1 | 0
Зарубежные сериалы [ 4.3 GB ] Хэппи / Happy! / Сезон: 1 / Серии: 1-8 из 8 [2017 WEB-DLRip] MVO [NewStudio] bober100 Скачать
1 | 0
Зарубежные сериалы [ 19.71 GB ] Хэппи / Happy! / Сезон: 1 / Серии 1-8 из 8 [2017 WEBRip 1080p ] [LostFilm] 1mpulse2k20 Скачать
1 | 0

28-11-2019 20:33  

Отключить всю рекламу на сайте

01-02-2018 16:35 Хэппи Скачать торрент  

Дичайший трэшак, но веселый ;)pb.wtf



03-02-2018 10:40 Хэппи Скачать торрент  

Ваще кора pb.wtf



    Дорогой пользователь! Огромная просьба, поблагодарите релизера, оцените раздачу и оставьте свои комментарий, если Вы скачали Хэппи через торрент бесплатно! Внесите свою лепту в развитие PiratBit!
    Комментировать посты могут только пользователи прошедшие не сложную регистрацию
    Показать сообщения:    

    Хэппи через торрент
    Скачать бесплатно Хэппи
    Хэппи скачать торрент
    Хэппи смотреть онлайн
    Cкачать фильм Хэппи бесплатно
    Хэппи скачать торрент в хорошем качестве
    Хэппи смотреть онлайн бесплатно в хорошем качестве


    Вы не можете начинать темы
    Вы не можете отвечать на сообщения
    Вы не можете редактировать свои сообщения
    Вы не можете удалять свои сообщения
    Вы не можете голосовать в опросах
    Вы не можете прикреплять файлы к сообщениям
    Вы можете скачивать файлы