Ссылка на приватное зеркало всего за 1$. Внимание количество ограничено!!!

OK

1+1

iTunes

мы

OK

1

WEB-DLRip

Джокер

Пифагор

Ведьмак / The Witcher сериал

Лицензия

ПШазам

ОК

Оно 2

iTunes

30
pack

Вам бонус

ВАЖНО

!!Акция!!

Alien_RageХит недели

RePack

Resident Evil 21

ИГРА 18+

pack

RePack

jed

RePack

fifa19

RePack

Assassins Creed: Odyssey

RePack

NEED FOR SPEED™ PAYBACK

4 сезон

9 сезон

Бесстыжие 9 сезон

Все сериалы

все сериалы на PB.wtf

RePack

FAR CRY 5
  

Краш-тест Аглаи / Crash Test Aglaé (Эрик Гравель) [2017, комедия, WEB-DL 720p] MVO [GreenРай Studio] pb.wtf

Краш-тест Аглаи через торрент pb.wtf

Размер: 2.48 GB | Добавлен: 1 год 11 мес. назад | Торрент скачан:100 раз
Скачать  

01-02-2018 18:38 Краш-тест Аглаи Скачать торрент  

Краш-тест Аглаи / Crash Test AglaéГод выпуска: 2017
Страна: Франция
Жанр: комедия
Продолжительность: 01:22:12
Перевод: Любительский (многоголосый) -
Субтитры: отсутствуют

Режиссер: Эрик Гравель

rating

В ролях:

Индия Хэйр, Жюли Депардье, Иоланда Моро, Энн Шаррье, Фредерик Бель, Тристан Ульоа, Адиль Хуссэйн, Ханнс Цишлер

Описание:

Для молодой Аглаи нет в жизни ничего важнее работы на заводе, где она проводит аварийные испытания автомобилей. Когда она узнаёт о переводе производства за границу, то соглашается, ко всеобщему удивлению, ехать в Индию, чтобы сохранить свою работу. В сопровождении двух коллег она отправляется на машине в рискованное путешествие на край света

Качество: WEB-DL 720p
Формат: MKV
Видео кодек: H.264
Аудио кодек: AC3

Видео: 1280x536 (2:40:1), 25.000 fps, 3849 Кбит/с
Аудио#1: AC3, 2 ch, 384 Кбит/с

скриншот   скриншот   скриншот  

General
Unique ID : 196106238339548599669431866269441023040 (0x9388B00B22E9D9FB9394810D31355C40)
Complete name : D:ВидеоKrash.tesh.Aglay.2017.P.WEB-DL.720p.GreenРай Studio.mkv
Format : Matroska
Format version : Version 4 / Version 2
File size : 2.48 GiB
Duration : 1h 22mn
Overall bit rate : 4 319 Kbps
Encoded date : UTC 2018-01-31 11:55:29
Writing application : mkvmerge v8.3.0 ('Over the Horizon') 64bit
Writing library : libebml v1.3.1 + libmatroska v1.4.2
DURATION : 01:22:12.032000000
NUMBER_OF_FRAMES : 154126
NUMBER_OF_BYTES : 236737536
_STATISTICS_WRITING_APP : mkvmerge v8.3.0 ('Over the Horizon') 64bit
_STATISTICS_WRITING_DATE_UT : 2018-01-31 11:55:29
_STATISTICS_TAGS : BPS DURATION NUMBER_OF_FRAMES NUMBER_OF_BYTES

Video
ID : 1
Format : AVC
Format/Info : Advanced Video Codec
Format profile : High@L3.1
Format settings, CABAC : Yes
Format settings, ReFrames : 4 frames
Codec ID : V_MPEG4/ISO/AVC
Duration : 1h 22mn
Bit rate : 3 849 Kbps
Width : 1 280 pixels
Height : 536 pixels
Display aspect ratio : 2.40:1
Frame rate mode : Constant
Frame rate : 25.000 fps
Color space : YUV
Chroma subsampling : 4:2:0
Bit depth : 8 bits
Scan type : Progressive
Bits/(Pixel*Frame) : 0.224
Stream size : 2.21 GiB (89%)
Writing library : x264 core 146 r2538 121396c
Encoding settings : cabac=1 / ref=1 / deblock=1:0:0 / analyse=0x3:0x113 / me=hex / subme=2 / psy=1 / psy_rd=1.00:0.00 / mixed_ref=0 / me_range=16 / chroma_me=1 / trellis=0 / 8x8dct=1 / cqm=0 / deadzone=21,11 / fast_pskip=1 / chroma_qp_offset=0 / threads=18 / lookahead_threads=4 / sliced_threads=0 / nr=0 / decimate=1 / interlaced=0 / bluray_compat=0 / constrained_intra=0 / bframes=3 / b_pyramid=2 / b_adapt=1 / b_bias=0 / direct=1 / weightb=1 / open_gop=0 / weightp=1 / keyint=250 / keyint_min=25 / scenecut=40 / intra_refresh=0 / rc_lookahead=10 / rc=crf / mbtree=1 / crf=13.3 / qcomp=0.60 / qpmin=0 / qpmax=69 / qpstep=4 / ip_ratio=1.40 / aq=1:1.00
Language : English
Default : Yes
Forced : No
DURATION : 01:22:12.080000000
NUMBER_OF_FRAMES : 123302
NUMBER_OF_BYTES : 2425072266
_STATISTICS_WRITING_APP : mkvmerge v8.3.0 ('Over the Horizon') 64bit
_STATISTICS_WRITING_DATE_UT : 2018-01-31 11:55:29
_STATISTICS_TAGS : BPS DURATION NUMBER_OF_FRAMES NUMBER_OF_BYTES

Audio
ID : 2
Format : AC-3
Format/Info : Audio Coding 3
Mode extension : CM (complete main)
Format settings, Endianness : Big
Codec ID : A_AC3
Duration : 1h 22mn
Bit rate mode : Constant
Bit rate : 384 Kbps
Channel(s) : 2 channels
Channel positions : Front: L R
Sampling rate : 48.0 KHz
Compression mode : Lossy
Stream size : 226 MiB (9%)
Default : Yes
Forced : No

pb.wtf



Скачать Краш-тест Аглаи через торрент http://b.radikal.ru/b23/1801/54/b34607a17c44.jpg Скачать фильм Краш-тест Аглаи через торрент бесплантно в хорошем качестве Описание: Для молодой Аглаи нет в жизни ничего важнее работы на заводе, где она проводит аварийные испытания автомобилей. Когда она узнаёт ... 9.5 10 6
Торрент: Зарегистрирован [2018-02-01 18:38] · скачан: 100 раз
Статус: T временная
Размер: 2.48 GB
Как cкачать? Как скачать Краш-тест Аглаи через торрент | qTorrent

% Раздел Тема Автор DL S | L
T Фильмы (мультфильмы) cо спонсором показа (Новинки AVI/MKV) [ 1.37 GB ] Краш-тест Аглаи / Crash Test Aglaé [2017 WEB-DLRip] MVO [GreenРай Studio] bober100 Скачать
1 | 0

28-11-2019 20:33  

Отключить всю рекламу на сайте

    Дорогой пользователь! Огромная просьба, поблагодарите релизера, оцените раздачу и оставьте свои комментарий, если Вы скачали Краш-тест Аглаи через торрент бесплатно! Внесите свою лепту в развитие PiratBit!
    Комментировать посты могут только пользователи прошедшие не сложную регистрацию
    Показать сообщения:    

    Краш-тест Аглаи через торрент
    Скачать бесплатно Краш-тест Аглаи
    Краш-тест Аглаи скачать торрент
    Краш-тест Аглаи смотреть онлайн
    Cкачать фильм Краш-тест Аглаи бесплатно
    Краш-тест Аглаи скачать торрент в хорошем качестве
    Краш-тест Аглаи смотреть онлайн бесплатно в хорошем качестве


    Вы не можете начинать темы
    Вы не можете отвечать на сообщения
    Вы не можете редактировать свои сообщения
    Вы не можете удалять свои сообщения
    Вы не можете голосовать в опросах
    Вы не можете прикреплять файлы к сообщениям
    Вы можете скачивать файлы