Ссылка на приватное зеркало нашего сайта всего за 1$. Внимание количество ограничено!!!

2 сезон

iTunes

1 сезон

1

iTunes

iTunes

iTunes

1 сезон

RePack

30

ИГРА 18+

pack

ВАЖНО

!!Акция!!

Alien_RageХит недели

RePack

MK11
pack

Забери бонус

RePack

jed

!!Акция!!

Alien_Rage

RePack

fifa19

RePack

Assassins Creed: Odyssey

RePack

NEED FOR SPEED™ PAYBACK

4 сезон

9 сезон

Бесстыжие 9 сезон

Все сериалы

все сериалы на PB.wtf

RePack

FAR CRY 5
  

Обманутый / The Beguiled (Дон Сигел) [1971, триллер, драма, военный, BDRip 1080p by msltel] DUB pb.wtf

Обманутый через торрент pb.wtf

Размер: 12.38 GB | Добавлен: 2 года 8 мес. назад | Торрент скачан:15 раз
Скачать  

02-02-2018 06:31 Обманутый Скачать торрент  

Название: Обманутый
Оригинальное название: The Beguiled
Год выпуска: 1971
Страна: США
Жанр: триллер, драма, военный
Продолжительность: 01:44:45
Перевод: дублированный

Режиссер: Дон Сигел
В ролях: Клинт Иствуд, Джеральдин Пейдж, Элизабет Хартман, Джо Энн Харрис, Дарлин Карр, Мэй Мерсер, Памелин Фердин, Мелоди Томас Скотт, Пегги Дриер, Патрисия Мэттик

О фильме: Один мужчина и семь женщин - неплохое соотношение! Особенно когда этот мужчина — капрал армии северян. Раненного янки Джона МакБарнея спасает от смерти юная конфедератка из южной школы-интерната. Женский коллектив ухаживает за ним и делает всё для его лечения. Вскоре Джон начинает поправляться и понимает в какое благодатное место его привела судьба. Одна за другой девушки оказываются очарованы обаятельным выздоравливающим. Постепенно атмосфера в школе накаляется — каждая мечтает завоевать расположение красавца-мужчины. Ревность, обман и обиды приходят на смену душевной близости и сердечности... За основу сюжета взят роман Томаса Куллинана (1919-1955) «Раскрашенный дьявол» (1966).



Качество: BDRip 1080p
Формат: MKV
Видео: MPEG-4 AVC, 15 Mбит/с, 1920x1040, 23.976 кадр/с
Аудио 1: русский, DTS, 447 kbps, 2 ch [дублированный]
Аудио 2: английский, DTS, 1509 kbps, 2 ch, 48 kHz [оригинал]
Субтитры 1: русские
Субтитры 2: английские
Неименованные главы/чаптеры.
Общее
Уникальный идентификатор : 246333978740036715372518245339734561732 (0xB95232D749F8110E94ADB1DBCF9153C4)
Полное имя : D:\Video\Обманутый.1971.BDRip.1080p by mslltel.mkv
Формат : Matroska
Версия формата : Version 4 / Version 2
Размер файла : 12,4 Гбайт
Продолжительность : 1 ч. 44 м.
Общий поток : 16,9 Мбит/сек
Название фильма : Rip by msltel
Дата кодирования : UTC 2018-02-02 03:15:27
Программа кодирования : mkvmerge v8.2.0 ('World of Adventure') 64bit
Библиотека кодирования : libebml v1.3.1 + libmatroska v1.4.2

Видео
Идентификатор : 1
Формат : AVC
Формат/Информация : Advanced Video Codec
Профиль формата : High@L4.1
Настройки формата : CABAC / 4 Ref Frames
Параметр CABAC формата : Да
Параметр RefFrames формата : 4 кадра
Идентификатор кодека : V_MPEG4/ISO/AVC
Продолжительность : 1 ч. 44 м.
Битрейт : 15,0 Мбит/сек
Ширина : 1920 пикселей
Высота : 1040 пикселей
Соотношение сторон : 1,85:1
Режим частоты кадров : Постоянный
Частота кадров : 23,976 (24000/1001) кадра/сек
Цветовое пространство : YUV
Субдискретизация насыщенности : 4:2:0
Битовая глубина : 8 бит
Тип развёртки : Прогрессивная
Бит/(Пиксели*Кадры) : 0.312
Размер потока : 10,9 Гбайт (88%)
Библиотека кодирования : x264 core 146 r2538 121396c
Настройки программы : cabac=1 / ref=4 / deblock=1:-3:-2 / analyse=0x3:0x113 / me=umh / subme=11 / psy=1 / psy_rd=1.00:0.15 / mixed_ref=1 / me_range=32 / chroma_me=1 / trellis=2 / 8x8dct=1 / cqm=0 / deadzone=21,11 / fast_pskip=0 / chroma_qp_offset=-3 / threads=6 / lookahead_threads=1 / sliced_threads=0 / nr=0 / decimate=1 / interlaced=0 / bluray_compat=0 / constrained_intra=0 / bframes=8 / b_pyramid=2 / b_adapt=2 / b_bias=0 / direct=1 / weightb=1 / open_gop=0 / weightp=2 / keyint=230 / keyint_min=23 / scenecut=40 / intra_refresh=0 / rc_lookahead=40 / rc=crf / mbtree=0 / crf=19.0 / qcomp=0.60 / qpmin=0 / qpmax=69 / qpstep=4 / vbv_maxrate=62500 / vbv_bufsize=78125 / crf_max=0.0 / nal_hrd=none / filler=0 / ip_ratio=1.40 / pb_ratio=1.30 / aq=1:1.00
Язык : English
Default : Да
Forced : Нет

Аудио #1
Идентификатор : 2
Формат : DTS
Формат/Информация : Digital Theater Systems
Идентификатор кодека : A_DTS
Продолжительность : 1 ч. 44 м.
Вид битрейта : Постоянный
Битрейт : 447 Кбит/сек
Каналы : 2 канала
Расположение каналов : Front: L R
Частота : 48,0 КГц
Частота кадров : 93,750 кадра/сек (512 SPF)
Битовая глубина : 24 бит
Метод сжатия : С потерями
Размер потока : 335 Мбайт (3%)
Заголовок : DUB
Язык : Russian
Default : Да
Forced : Нет

Аудио #2
Идентификатор : 3
Формат : DTS
Формат/Информация : Digital Theater Systems
Идентификатор кодека : A_DTS
Продолжительность : 1 ч. 44 м.
Вид битрейта : Постоянный
Битрейт : 1509 Кбит/сек
Каналы : 2 канала
Расположение каналов : Front: L R
Частота : 48,0 КГц
Частота кадров : 93,750 кадра/сек (512 SPF)
Битовая глубина : 24 бит
Метод сжатия : С потерями
Размер потока : 1,10 Гбайт (9%)
Заголовок : original
Язык : English
Default : Нет
Forced : Нет

Текст #1
Идентификатор : 4
Формат : UTF-8
Идентификатор кодека : S_TEXT/UTF8
Идентификатор кодека/Информация : UTF-8 Plain Text
Продолжительность : 1 ч. 42 м.
Битрейт : 75 бит/сек
ElementCount : 1136
Размер потока : 56,4 Кбайт (0%)
Заголовок : русские
Язык : Russian
Default : Нет
Forced : Нет

Текст #2
Идентификатор : 5
Формат : UTF-8
Идентификатор кодека : S_TEXT/UTF8
Идентификатор кодека/Информация : UTF-8 Plain Text
Продолжительность : 1 ч. 43 м.
Битрейт : 55 бит/сек
ElementCount : 1189
Размер потока : 42,0 Кбайт (0%)
Заголовок : английские
Язык : English
Default : Нет
Forced : Нет

Меню
00:00:00.000 : :Chapter 01
00:02:26.521 : :Chapter 02
00:11:27.645 : :Chapter 03
00:22:07.743 : :Chapter 04
00:29:17.756 : :Chapter 05
00:34:19.015 : :Chapter 06
00:39:58.562 : :Chapter 07
00:44:51.230 : :Chapter 08
00:53:31.166 : :Chapter 09
01:01:14.462 : :Chapter 10
01:08:15.174 : :Chapter 11
01:12:33.974 : :Chapter 12
01:17:41.823 : :Chapter 13
01:24:18.386 : :Chapter 14
01:33:38.029 : :Chapter 15
01:42:27.224 : :Chapter 16
01:44:45.028 : :Chapter 17
pb.wtf



Скачать Обманутый через торрент https://a.radikal.ru/a01/1802/f2/ef998bb945f3.jpg Скачать фильм Обманутый через торрент бесплантно в хорошем качестве О фильме: Один мужчина и семь женщин - неплохое соотношение! Особенно когда этот мужчина — капрал армии северян. Раненного янки Джона ... 10 10 2
Info! Золотая раздача, скачанное не засчитывается.
Торрент: Зарегистрирован [2018-02-02 06:31] · скачан: 15 раз
Статус: √ проверено
Размер: 12.38 GB
Как cкачать? Как скачать Обманутый через торрент | qTorrent

% Раздел Тема Автор DL S | L
Фильмы [HD 720p, 1080p] (Хороший звук DUB, MVO) [ 4.27 GB ] Обманутый / The Beguiled [1971 военный BDRip 720p by msltel] DUB msltel Скачать
1 | 0

28-11-2019 20:33  

Отключить всю рекламу на сайте

    Дорогой пользователь! Огромная просьба, поблагодарите релизера, оцените раздачу и оставьте свои комментарий, если Вы скачали Обманутый через торрент бесплатно! Внесите свою лепту в развитие PiratBit!
    Комментировать посты могут только пользователи прошедшие не сложную регистрацию
    Показать сообщения:    

    Обманутый через торрент
    Скачать бесплатно Обманутый
    Обманутый скачать торрент
    Обманутый смотреть онлайн
    Cкачать фильм Обманутый бесплатно
    Обманутый скачать торрент в хорошем качестве
    Обманутый смотреть онлайн бесплатно в хорошем качестве


    Вы не можете начинать темы
    Вы не можете отвечать на сообщения
    Вы не можете редактировать свои сообщения
    Вы не можете удалять свои сообщения
    Вы не можете голосовать в опросах
    Вы не можете прикреплять файлы к сообщениям
    Вы можете скачивать файлы