Ссылка на приватное зеркало всего за 1$. Внимание количество ограничено!!!

iTunes

iTunes

iTunes

1

iTunes

iTunes

iTunes

WEBRip

iTunes

30
pack

$ от Little Big

ВАЖНО

!!Акция!!

Alien_RageХит недели

RePack

Resident Evil 21

ИГРА 18+

pack

RePack

jed

!!Акция!!

Alien_Rage

RePack

fifa19

RePack

Assassins Creed: Odyssey

RePack

NEED FOR SPEED™ PAYBACK

4 сезон

9 сезон

Бесстыжие 9 сезон

Все сериалы

все сериалы на PB.wtf

RePack

FAR CRY 5
  

Доктор Кто: Шада / Doctor Who: Shada (Чарльз Нортон) [2017, фантастика, BDRip 720p] MVO ["Синема УС"] pb.wtf

Доктор Кто: Шада через торрент pb.wtf

Размер: 5.59 GB | Добавлен: 2 года 6 мес. назад | Торрент скачан:136 раз
Скачать  

02-02-2018 07:11 Доктор Кто: Шада Скачать торрент  

Доктор Кто: Шада / Doctor Who: ShadaГод выпуска: 2017
Страна: Великобритания
Жанр: фантастика
Продолжительность: 02:19:26
Перевод: Любительский (многоголосый) ["Синема УС"]
Субтитры: отсутствуют

Режиссер: Чарльз Нортон

rating

В ролях:

Том Бэйкер, Тим Бентинк, Виктория Бёргойн, Грэм Коул, Джеймс Кумбз, Ширли Диксон, Барнеби Эдвардс, Дэниэл Хилл, Кристофер Ним

Описание:

Шада- планета-тюрьма Повелителей Времени, в которой они заключали самых опасных преступников. Скагра, гений с планеты Дроноид хочет создать "Вселенский разум" который будет содержать знания этих преступников. Но знание о местонахождение планеты Шада уже давно утеряно. Единственный кто его знает, это повелитель времени профессор Хронотис. Шада начинает его преследовать, профессор обращается за помощью к своему старому другу- Доктору.

Качество: BDRip 720p
Формат: MKV
Видео кодек: H.264
Аудио кодек: AC3

Видео: 5287 kb/s, 928x720
Аудио#1: AC3, 2 ch, 448 kbps

скриншот   скриншот   скриншот  

Общее
Уникальный идентификатор : 235230017186382510675110208815277404509 (0xB0F7A744AF531CDA9ECB084A5325F15D)
Полное имя : D:\Doctor.who.shada.2017.P.BDRip.72Op_KOSHARA.mkv
Формат : Matroska
Версия формата : Version 2
Размер файла : 5,59 Гбайт
Продолжительность : 2 ч. 19 м.
Режим общего битрейта : Переменный
Общий поток : 5737 Кбит/сек
Дата кодирования : UTC 2018-02-01 03:55:54
Программа кодирования : mkvmerge v8.3.0 ('Over the Horizon') 64bit
Библиотека кодирования : libebml v1.3.1 + libmatroska v1.4.2

Видео
Идентификатор : 1
Формат : AVC
Формат/Информация : Advanced Video Codec
Профиль формата : High@L4.1
Параметр CABAC формата : Да
Параметр ReFrames формата : 4 кадра
Идентификатор кодека : V_MPEG4/ISO/AVC
Продолжительность : 2 ч. 19 м.
Вид битрейта : Переменный
Битрейт : 5287 Кбит/сек
Максимальный битрейт : 6000 Кбит/сек
Ширина : 928 пикселей
Высота : 720 пикселей
Соотношение сторон : 1,289
Режим частоты кадров : Постоянный
Частота кадров : 23,976 (24000/1001) кадра/сек
Стандарт вещания : Component
Цветовое пространство : YUV
Субдискретизация насыщенности : 4:2:0
Битовая глубина : 8 бит
Тип развёртки : Прогрессивная
Бит/(Пиксели*Кадры) : 0.323
Размер потока : 5,04 Гбайт (90%)
Default : Да
Forced : Нет
Цветовой диапазон : Limited
Основные цвета : BT.709
Характеристики трансфера : BT.709
Коэффициенты матрицы : BT.709

Аудио
Идентификатор : 2
Формат : AC-3
Формат/Информация : Audio Coding 3
Расширение режима : CM (complete main)
Параметр Endianness формата : Big
Идентификатор кодека : A_AC3
Продолжительность : 2 ч. 19 м.
Вид битрейта : Постоянный
Битрейт : 448 Кбит/сек
Каналы : 2 канала
Расположение каналов : Front: L R
Частота : 48,0 КГц
Частота кадров : 31,250 кадров/сек (1536 spf)
Метод сжатия : С потерями
Размер потока : 447 Мбайт (8%)
Default : Да
Forced : Нет

pb.wtf



Скачать Доктор Кто: Шада через торрент http://img12.lostpic.net/2018/02/02/df3aaffd29c4edf929fec86fa9037db7.jpg Скачать фильм Доктор Кто: Шада через торрент бесплантно в хорошем качестве Описание: Шада- планета-тюрьма Повелителей Времени, в которой они заключали самых опасных преступников. Скагра, гений с планеты Дроноид ... 8.9 10 8
Торрент: Зарегистрирован [2018-02-02 07:11] · скачан: 136 раз
Статус: # сомнительно
Размер: 5.59 GB
Как cкачать? Как скачать Доктор Кто: Шада через торрент | qTorrent

% Раздел Тема Автор DL S | L
T Фильмы (мультфильмы) cо спонсором показа (Новинки AVI/MKV) [ 1.46 GB ] Доктор Кто: Шада / Doctor Who: Shada [2017 HDRip] MVO ["Синема УС"] bober100 Скачать
1 | 0
T Фильмы (мультфильмы) cо спонсором показа (Новинки AVI/MKV) [ 2.18 GB ] Доктор Кто: Шада / Doctor Who: Shada [2017 HDRip] MVO ["Синема УС"] bober100 Скачать
1 | 0

28-11-2019 20:33  

Отключить всю рекламу на сайте

04-02-2018 16:40 Доктор Кто: Шада Скачать торрент  

Это что за треш?pb.wtf



    Дорогой пользователь! Огромная просьба, поблагодарите релизера, оцените раздачу и оставьте свои комментарий, если Вы скачали Доктор Кто: Шада через торрент бесплатно! Внесите свою лепту в развитие PiratBit!
    Комментировать посты могут только пользователи прошедшие не сложную регистрацию
    Показать сообщения:    

    Доктор Кто: Шада через торрент
    Скачать бесплатно Доктор Кто: Шада
    Доктор Кто: Шада скачать торрент
    Доктор Кто: Шада смотреть онлайн
    Cкачать фильм Доктор Кто: Шада бесплатно
    Доктор Кто: Шада скачать торрент в хорошем качестве
    Доктор Кто: Шада смотреть онлайн бесплатно в хорошем качестве


    Вы не можете начинать темы
    Вы не можете отвечать на сообщения
    Вы не можете редактировать свои сообщения
    Вы не можете удалять свои сообщения
    Вы не можете голосовать в опросах
    Вы не можете прикреплять файлы к сообщениям
    Вы можете скачивать файлы