Ссылка на приватное зеркало всего за 1$. Внимание количество ограничено!!!

OK

1+1

iTunes

мы

OK

1

WEB-DLRip

Джокер

Пифагор

Ведьмак / The Witcher сериал

Лицензия

ПШазам

ОК

Оно 2

iTunes

30
pack

Вам бонус

ВАЖНО

!!Акция!!

Alien_RageХит недели

RePack

Resident Evil 21

ИГРА 18+

pack

RePack

jed

!!Акция!!

Alien_Rage

RePack

fifa19

RePack

Assassins Creed: Odyssey

RePack

NEED FOR SPEED™ PAYBACK

4 сезон

9 сезон

Бесстыжие 9 сезон

Все сериалы

все сериалы на PB.wtf

RePack

FAR CRY 5
  

Дом на продажу / The Open House (Мэтт Энджел, Сюзанна Кут) [2018, ужасы, триллер, WEBRip от R.G.Resident] MVO [NewStudio] pb.wtf

Дом на продажу через торрент pb.wtf

Размер: 1.45 GB | Добавлен: 1 год 11 мес. назад | Торрент скачан:290 раз
Скачать  

02-02-2018 09:28 Дом на продажу Скачать торрент  

Дом на продажу / The Open House

Год выпуска: 2018
Страна: США
Жанр: ужасы, триллер
Продолжительность: 01:34:58
Перевод: Профессиональный многоголосый [NewStudio]
Примечание: Релиз без рекламы
Режиссер: Мэтт Энджел, Сюзанна Кут
В ролях:

Дилан Миннетт (Logan Wallace), Piercey Dalton (Naomi Wallace), Шариф Аткинс (Chris), Патрисия Бетун (Martha), Мэтт Энджел (Cop #1), Suzanne Coote (Waitress), Аарон Абрамс (Brian Wallace), Kathryn Beckwith (Joannie McAllister), Этан Кашинг (Tommy), Эдвард Олсон (The Man in Black), Ли Паркер (Ed), Пол Рэй (Plumber)
Описание:
После смерти мужа Наоми с сыном-подростком Логаном остаются без средств к существованию, и сестра женщины предлагает им пожить в своем огромном особняке посреди леса. Дом выставлен на продажу, поэтому новые жильцы должны периодически оставлять ключи и дом риэлторам на целый день. Скорбя о потере, мать с сыном стараются не обращать внимание на некоторые странности жилища, что вскоре может выйти им боком.
Рейтинг:

Качество: WEBRip
Формат: AVI
Видео: XviD, 720x304 (2.35:1), 1794 kbps, 23,976 fps, 0,342 bpp
Аудио: AC3 / 5.1 / 48 kHz / 384 kbps /

Перевод: Ирина Гвозденко
Очистка от рекламы: Atla22
General
Complete name : E:\The.open.house.2018.WEBRip.R.G.Resident.avi
Format : AVI
Format/Info : Audio Video Interleave
File size : 1.45 GiB
Duration : 1 h 34 min
Overall bit rate : 2 186 kb/s
Writing application : VirtualDubModRus 1.5.10.2 (build 2542/release)
Writing library : VirtualDubMod build 2542/release

Video
ID : 0
Format : MPEG-4 Visual
Format profile : Advanced Simple@L5
Format settings, BVOP : 2
Format settings, QPel : No
Format settings, GMC : No warppoints
Format settings, Matrix : Custom
Codec ID : XVID
Codec ID/Hint : XviD
Duration : 1 h 34 min
Bit rate : 1 795 kb/s
Width : 720 pixels
Height : 304 pixels
Display aspect ratio : 2.35:1
Frame rate : 23.976 (24000/1001) FPS
Color space : YUV
Chroma subsampling : 4:2:0
Bit depth : 8 bits
Scan type : Progressive
Compression mode : Lossy
Bits/(Pixel*Frame) : 0.342
Stream size : 1.19 GiB (82%)
Writing library : XviD 73

Audio
ID : 1
Format : AC-3
Format/Info : Audio Coding 3
Mode extension : CM (complete main)
Format settings, Endianness : Big
Codec ID : 2000
Duration : 1 h 34 min
Bit rate mode : Constant
Bit rate : 384 kb/s
Channel(s) : 6 channels
Channel positions : Front: L C R, Side: L R, LFE
Sampling rate : 48.0 kHz
Frame rate : 31.250 FPS (1536 spf)
Compression mode : Lossy
Stream size : 259 MiB (17%)
Alignment : Split accross interleaves
Interleave, duration : 42 ms (1.01 video frame)
Interleave, preload duration : 500 ms
pb.wtf



Скачать Дом на продажу через торрент http://i77.fastpic.ru/big/2016/0417/a7/808a646271c761f7c7d87df3d366b3a7.png Скачать фильм Дом на продажу через торрент бесплантно в хорошем качестве Описание: После смерти мужа Наоми с сыном-подростком Логаном остаются без средств к существованию, и сестра женщины предлагает им пожить в ... 7.9 10 15
Info! Золотая раздача, скачанное не засчитывается.
Торрент: Зарегистрирован [2018-02-02 09:28] · скачан: 290 раз
Статус: √ проверено
Размер: 1.45 GB
Как cкачать? Как скачать Дом на продажу через торрент | qTorrent

% Раздел Тема Автор DL S | L
Фильмы 2018 [DVDrip, WEB-DLRip, HDrip] (DUB, MVO) [ 1.37 GB ] Дом на продажу / The Open House [2018 WEBRip] MVO [Jaskier] bober100 Скачать
1 | 0
Фильмы (WEB-DL 720p, 1080p) [ 2.89 GB ] Дом на продажу / The Open House [2018 WEBRip 1080p] MVO [Jaskier] bober100 Скачать
3 | 0
T Фильмы (WEB-DL 720p, 1080p) [ 1.85 GB ] Дом на продажу / The Open House [2018 WEBRip 720p] [MVO] WorldSM Скачать
1 | 0

28-11-2019 20:33  

Отключить всю рекламу на сайте

02-02-2018 21:04 Дом на продажу Скачать торрент  

Концовка фильма поразила
- вернее ее отсутствие.Весь фильм ждешь развязку но так и не понятно кто же всех убивал...((
А так в принципе сюжет не плохойpb.wtf
!-Lexx- писал(а):

jikkka, Правила пользования данным ресурсом.

Цитата:

5.7. Сюжетные моменты, в любых проектах(кино,игры и т.д.), а также местоположение персонажей, предметов и т.д. (игры) разрешается раскрывать только в спойлере, соответственно подписанном. На первый раз выдается предупреждение на 1 месяц, на 2-й раз - бессрочное предупреждение на 3-й раз деактивация аккаунта без возможности восстановить. Уважайте тех кто планирует смотреть, играть и еще решает читая Ваши отзывы в темах.

Комментарий отредактировал.
Устное предупреждение.



03-02-2018 14:42 Дом на продажу Скачать торрент  

во вася!!! взял и фильм рассказал!! жуккка ты молодец!!!pb.wtf
K-Lexx- писал(а):

Отредактировал, убрал в спойлер.



01-03-2018 07:20 Дом на продажу Скачать торрент  

Вот блин же! Такое чувство, что фильм начинал снимать один режиссер с кучей сюжетных задумок и непредсказуемой концовкой, а последние 20 минут его сменил другой, с желанием поскорее закончить, типа "Ой бл@ и так сойдет!"pb.wtf



    Дорогой пользователь! Огромная просьба, поблагодарите релизера, оцените раздачу и оставьте свои комментарий, если Вы скачали Дом на продажу через торрент бесплатно! Внесите свою лепту в развитие PiratBit!
    Комментировать посты могут только пользователи прошедшие не сложную регистрацию
    Показать сообщения:    

    Дом на продажу через торрент
    Скачать бесплатно Дом на продажу
    Дом на продажу скачать торрент
    Дом на продажу смотреть онлайн
    Cкачать фильм Дом на продажу бесплатно
    Дом на продажу скачать торрент в хорошем качестве
    Дом на продажу смотреть онлайн бесплатно в хорошем качестве


    Вы не можете начинать темы
    Вы не можете отвечать на сообщения
    Вы не можете редактировать свои сообщения
    Вы не можете удалять свои сообщения
    Вы не можете голосовать в опросах
    Вы не можете прикреплять файлы к сообщениям
    Вы можете скачивать файлы