Ссылка на приватное зеркало нашего сайта всего за 1$. Внимание количество ограничено!!!

2 сезон

iTunes

1 сезон

1

2 сезон

2 сезон

iTunes

1 сезон

RePack

30

Ultimate

ВАЖНО

ИГРА 18+

pack

RePack

MK11
pack

Забери бонус

RePack

jed

!!Акция!!

Alien_Rage

RePack

fifa19

RePack

Assassins Creed: Odyssey

RePack

NEED FOR SPEED™ PAYBACK

4 сезон

9 сезон

Бесстыжие 9 сезон

Все сериалы

все сериалы на PB.wtf

RePack

FAR CRY 5
  

Маленький вампир в 3Д / The Little Vampire 3D (Рихард Клаус, Карстен Килерих / Richard Claus, Karsten Kiilerich) [2017, мультфильм, ужасы, фэнтези, комедия, приключения, BDrip, 1080p] OverUnder / Вертикальная стереопара pb.wtf

Маленький вампир в 3Д через торрент pb.wtf

Размер: 6.55 GB | Добавлен: 2 года 9 мес. назад | Торрент скачан:43 раза
Скачать  

02-02-2018 14:22 Маленький вампир в 3Д Скачать торрент  

Маленький вампир / The Little Vampire

Год выпуска: 2017
Страна: Нидерланды, Германия, Дания, Великобритания
Студия: eOne, Cinema Management Group, First Look, Comet Film, A-Film Production, Cool Beans, Telescreen, Rothkirch Cartoon Film, ...
Жанр: мультфильм, ужасы, фэнтези, комедия, приключения
Продолжительность: 01:22:02

Перевод: Профессиональный дублированный(iTunes)
Русские субтитры: нет
Режиссер: Рихард Клаус, Карстен Килерих / Richard Claus, Karsten Kiilerich

Роли озвучивали: Расмус Хардайкер, Эми Сэвилл, Джим Картер, Джозеф Клоска, Фиби Гиврон-Тейлор, Тим Пиготт-Смит, Элис Крайдж, Джулия Родс, Кевин Отто, Дайан Уилсон

Описание: Это история о маленьком вампире Рудольфе — тринадцатилетнем мальчике, чью семью преследует злостный охотник на вампиров. Однажды Рудольф встречает обычного мальчика, Тони, своего сверстника. Тони без ума от старинных замков и страшных историй про вампиров, поэтому он не раздумывая предлагает Рудольфу свою помощь. Теперь эту парочку ждут весёлые и невероятные приключения и противостояние с охотником на вампиров.

Дополнительная информация по релизу: Видео сделанное с помощью Nvidia NVENC — аппаратного кодировщика видео H.264. Настройки кодирования, --bframes 10 --ref 4 --qp-min 10 --qp-max 69 --lookahead 32 --direct auto --sar 1:1 --vbv-bufsize 40000 --input-res 1920x1080 --fps 24000/1001 --cqp 18:20:22 --cabac. Так как в медиаинфо они не видны.

Сэмпл: http://sendfile.su/1395961

Качество: BDrip, 1080p
Контейнер: MKV
Формат 3D: OverUnder / Вертикальная стереопара
Порядок ракурсов: левый ракурс первый
Видео кодек: h.264
Аудио кодек: AC3
Видео: AVC / High@L5.0 / 23,976 fps / 1920х2160 / 10,2 Мбит/сек
Аудио: Русский / AC3 / 48 KHz / 5.1 ch / 384 Кбит/сек(iTunes)
Аудио 2: Английский / AC3 / 48 KHz / 5.1 ch / 640 Кбит/сек

ВНИМАНИЕ ! На встроенных ТВ-плеерах работать не будет!!!

ТВ Samsung в названии которого есть надпись Ultra HD , и LG Ultra HD 800 серии, LG C6P, Xiaomi Mi TV 2 воспроизводят полные стереопары встроенными плеерами
Железные плееры на которых воспроизводятся полные стереопары:Popcorn C-200 , Dune HD Smart D1 , Dune HD DUO , Dune HD Smart H1 , Dune HD Smart B1 , Dune HD Max , Dune HD TV-303D , Dune HD Base 3D, Philips HMP7001, Aura HD, MECOOL BB2
Чтобы изображение было на весь экран в плеере выставляем, если рип 1920х1600 - то выставляем 2.35:1 , если 1920х2160 - то выставляем 16:9
Общее
Уникальный идентификатор : 239215071859724615920548876849744003288 (0xB3F725A2138B8A7A9C93DA49242D40D8)
Полное имя : E:\закачки\The Little Vampire 3D.Rip by SeRoGa00.mkv
Формат : Matroska
Версия формата : Version 2
Размер файла : 6,55 Гбайт
Продолжительность : 1 ч. 22 м.
Общий поток : 11,4 Мбит/сек
Дата кодирования : UTC 2018-02-02 13:18:34
Программа кодирования : mkvmerge v3.4.0 ('Rapunzel') сборка от May 15 2010 09:38:20
Библиотека кодирования : libebml v0.8.0 + libmatroska v0.9.0

Видео
Идентификатор : 1
Формат : AVC
Формат/Информация : Advanced Video Codec
Профиль формата : High@L5.0
Параметр CABAC формата : Да
Параметр ReFrames формата : 4 кадра
Идентификатор кодека : V_MPEG4/ISO/AVC
Продолжительность : 1 ч. 22 м.
Битрейт : 10,2 Мбит/сек
Ширина : 1920 пикселей
Высота : 2160 пикселей
Соотношение сторон : 0,889
Частота кадров : 23,976 кадра/сек
Цветовое пространство : YUV
Субдискретизация насыщенности : 4:2:0
Битовая глубина : 8 бит
Тип развёртки : Прогрессивная
Бит/(Пиксели*Кадры) : 0.102
Размер потока : 5,83 Гбайт (89%)
Заголовок : Rip by SeRoGa00
Default : Да
Forced : Нет

Аудио #1
Идентификатор : 2
Формат : AC-3
Формат/Информация : Audio Coding 3
Расширение режима : CM (complete main)
Параметр Endianness формата : Big
Идентификатор кодека : A_AC3
Продолжительность : 1 ч. 22 м.
Вид битрейта : Постоянный
Битрейт : 384 Кбит/сек
Каналы : 6 каналов
Расположение каналов : Front: L C R, Side: L R, LFE
Частота : 48,0 КГц
Битовая глубина : 16 бит
Метод сжатия : С потерями
Размер потока : 226 Мбайт (3%)
Язык : Russian
Default : Да
Forced : Нет

Аудио #2
Идентификатор : 3
Формат : AC-3
Формат/Информация : Audio Coding 3
Расширение режима : CM (complete main)
Параметр Endianness формата : Big
Идентификатор кодека : A_AC3
Продолжительность : 1 ч. 22 м.
Вид битрейта : Постоянный
Битрейт : 640 Кбит/сек
Каналы : 6 каналов
Расположение каналов : Front: L C R, Side: L R, LFE
Частота : 48,0 КГц
Битовая глубина : 16 бит
Метод сжатия : С потерями
Размер потока : 376 Мбайт (6%)
Язык : English
Default : Нет
Forced : Нет
скриншот   скриншот   скриншот   скриншот   скриншот   скриншот  
pb.wtf



Скачать Маленький вампир в 3Д через торрент https://a.radikal.ru/a26/1802/b5/b836c32cee11.png Скачать фильм Маленький вампир в 3Д через торрент бесплантно в хорошем качестве Описание: Это история о маленьком вампире Рудольфе — тринадцатилетнем мальчике, чью семью преследует злостный охотник на вампиров. Однажды ... 10 10 3
Торрент: Зарегистрирован [2018-02-02 14:22] · скачан: 43 раз
Статус: √ проверено
Размер: 6.55 GB
Как cкачать? Как скачать Маленький вампир в 3Д через торрент | qTorrent

28-11-2019 20:33  

Отключить всю рекламу на сайте

02-02-2018 17:58 Маленький вампир в 3Д Скачать торрент  

Для сравнения сделаю так же этот мультик в х264pb.wtf



    Дорогой пользователь! Огромная просьба, поблагодарите релизера, оцените раздачу и оставьте свои комментарий, если Вы скачали Маленький вампир в 3Д через торрент бесплатно! Внесите свою лепту в развитие PiratBit!
    Комментировать посты могут только пользователи прошедшие не сложную регистрацию
    Показать сообщения:    

    Маленький вампир в 3Д через торрент
    Скачать бесплатно Маленький вампир в 3Д
    Маленький вампир в 3Д скачать торрент
    Маленький вампир в 3Д смотреть онлайн
    Cкачать фильм Маленький вампир в 3Д бесплатно
    Маленький вампир в 3Д скачать торрент в хорошем качестве
    Маленький вампир в 3Д смотреть онлайн бесплатно в хорошем качестве


    Вы не можете начинать темы
    Вы не можете отвечать на сообщения
    Вы не можете редактировать свои сообщения
    Вы не можете удалять свои сообщения
    Вы не можете голосовать в опросах
    Вы не можете прикреплять файлы к сообщениям
    Вы можете скачивать файлы