2 сезон

iTunes

MVO

1

2 сезон

iTunes

iTunes

1 сезон

RePack

30

Новинка

ВАЖНО

ИГРА 18+

pack

RePack

MK11
pack

Легкие деньги

RePack

jed

RePack

fifa19

RePack

RDR2

RePack

NEED FOR SPEED™ PAYBACK

4 сезон

9 сезон

Бесстыжие 9 сезон

Все сериалы

все сериалы на PB.wtf

RePack

FAR CRY 5

Anonymous, добрый вечер, мы не успеваем собрать деньги на оплату серверов за декабрь и январь, помогите нам пожалуйста в это трудное время. В качестве благодарности мы отключим Вам всю рекламу на сайте (укажите свой ник в строку Ваше имя)!

×
  
Magnet ссылка

Счастливого дня смерти / Happy Death Day (Кристофер Лэндон) [2017, ужасы, триллер, детектив, BDRip-AVC] Дублированный [iTunes] R.G.Generalfilm pb.wtf

Счастливого дня смерти через торрент pb.wtf

Раздают: 1 [ 0 KB/s ]
Размер: 1.4 GB | Добавлен: 2 года 11 мес. назад | Торрент скачан:1999 раз
Скачать  

02-02-2018 17:26 Счастливого дня смерти Скачать торрент  

Happy Death Day
««Проснись. Отпразднуй день рождения. Умри. Повтори. Снова и снова...»»


Год выпуска: 2017
Страна: США
Жанр: ужасы, триллер, детектив, комедия

Продолжительность: 01:36:11
Перевод: Дублированный [iTunes]
Режиссер: Кристофер Лэндон
В ролях:

Джессика Рот (Tree Gelbman), Израэль Бруссар (Carter Davis), Руби Модин (Lori Spengler), Чарльз Эйткин (Gregory Butler), Лаура Клифтон (Stephanie Butler), Джейсон Бэйл (David Gelbman), Роб Мелло (Joseph Tombs), Рэйчел Мэттьюз (Danielle Bouseman), Рэмси Андерсон (Keith Lumbly), Брэйди Льюис (Frat Brother), Фи Ву (Ryan Phan), Тени Интриаго (Student Protester)
Описание:
Каждый в универе мечтал попасть на её день рождения, но праздник был безнадежно испорчен незнакомцем в маске, убившим виновницу торжества. Однако судьба преподнесла имениннице леденящий душу подарок - бесконечный запас жизней. И теперь у девушки появился шанс вычислить своего убийцу, ведь этот день будет повторяться снова и снова...
Мировая премьера: 7 октября 2017

Качество: BDRip-AVC by
Формат: MKV
Видео кодек: AVC
Аудио кодек: AC3
Видео: AVC, 1024x428 (2.40:1), 1692 kbps, 23,976 fps, 0,161 bpp
Аудио: русский / AC3 / 5.1 / 48 kHz / 384 kbps / ||
Навигация по главам: есть
General
Unique ID : 248459049743952143873030348295480972614 (0xBAEB78EE4309821C8EE30E82AB129546)
Complete name : E:\Happy.Death.Day.2017.BDRip-AVC.Rip.by.White Smoke.R.G.Generalfilm.mkv
Format : Matroska
Format version : Version 4 / Version 2
File size : 1.40 GiB
Duration : 1 h 36 min
Overall bit rate : 2 077 kb/s
Movie name : Happy.Death.Day.2017.BDRip-AVC.Rip.by.White Smoke.R.G.Generalfilm.mkv
Encoded date : UTC 2018-02-02 16:07:04
Writing application : mkvmerge v6.8.0 ('Theme for Great Cities') 64bit built on Mar 2 2014 21:34:26
Writing library : libebml v1.3.0 + libmatroska v1.4.1

Video
ID : 1
Format : AVC
Format/Info : Advanced Video Codec
Format profile : High@L4.1
Format settings, CABAC : Yes
Format settings, ReFrames : 10 frames
Codec ID : V_MPEG4/ISO/AVC
Duration : 1 h 36 min
Bit rate : 1 692 kb/s
Width : 1 024 pixels
Height : 428 pixels
Display aspect ratio : 2.40:1
Frame rate mode : Constant
Frame rate : 23.976 (24000/1001) FPS
Color space : YUV
Chroma subsampling : 4:2:0
Bit depth : 8 bits
Scan type : Progressive
Bits/(Pixel*Frame) : 0.161
Stream size : 1.11 GiB (80%)
Writing library : x264 core 148 r2638 7599210
Encoding settings : cabac=1 / ref=10 / deblock=1:-2:-1 / analyse=0x3:0x113 / me=umh / subme=11 / psy=1 / psy_rd=0.00:0.15 / mixed_ref=1 / me_range=32 / chroma_me=1 / trellis=2 / 8x8dct=1 / cqm=0 / deadzone=21,11 / fast_pskip=0 / chroma_qp_offset=-3 / threads=6 / lookahead_threads=1 / sliced_threads=0 / nr=0 / decimate=1 / interlaced=0 / bluray_compat=0 / constrained_intra=0 / bframes=10 / b_pyramid=2 / b_adapt=2 / b_bias=0 / direct=1 / weightb=1 / open_gop=0 / weightp=2 / keyint=240 / keyint_min=23 / scenecut=40 / intra_refresh=0 / rc_lookahead=40 / rc=2pass / mbtree=1 / bitrate=1692 / ratetol=1.0 / qcomp=0.65 / qpmin=0 / qpmax=69 / qpstep=4 / cplxblur=20.0 / qblur=0.5 / vbv_maxrate=50000 / vbv_bufsize=65500 / nal_hrd=none / filler=0 / ip_ratio=1.40 / aq=1:1.00
Language : English
Default : Yes
Forced : No

Audio
ID : 2
Format : AC-3
Format/Info : Audio Coding 3
Mode extension : CM (complete main)
Format settings, Endianness : Big
Codec ID : A_AC3
Duration : 1 h 36 min
Bit rate mode : Constant
Bit rate : 384 kb/s
Channel(s) : 6 channels
Channel positions : Front: L C R, Side: L R, LFE
Sampling rate : 48.0 kHz
Frame rate : 31.250 FPS (1536 spf)
Compression mode : Lossy
Stream size : 264 MiB (18%)
Language : Russian
Default : Yes
Forced : No

Menu
00:00:00.000 : en:00:00:00.000
00:04:54.461 : en:00:04:54.461
00:10:26.000 : en:00:10:26.000
00:14:10.683 : en:00:14:10.683
00:21:46.722 : en:00:21:46.722
00:25:08.799 : en:00:25:08.799
00:29:37.859 : en:00:29:37.859
00:33:09.321 : en:00:33:09.321
00:37:50.143 : en:00:37:50.143
00:41:46.170 : en:00:41:46.170
00:44:54.191 : en:00:44:54.191
00:53:07.935 : en:00:53:07.935
00:57:28.362 : en:00:57:28.362
01:00:18.448 : en:01:00:18.448
01:07:41.557 : en:01:07:41.557
01:12:16.290 : en:01:12:16.290
01:16:35.090 : en:01:16:35.090
01:21:17.081 : en:01:21:17.081
01:27:13.645 : en:01:27:13.645
01:30:24.169 : en:01:30:24.169
pb.wtf



Скачать Счастливого дня смерти через торрент http://interhit.org/img/2018-02/02/f1fircbcfxny474mvbi9ormcq.png Скачать фильм Счастливого дня смерти через торрент бесплантно в хорошем качестве Описание: Каждый в универе мечтал попасть на её день рождения, но праздник был безнадежно испорчен незнакомцем в маске, убившим виновницу ... 9.3 10 32
Info! Золотая раздача, скачанное не засчитывается.
Торрент: Зарегистрирован [2018-02-02 17:26] · скачан: 1 999 раз
Статус: √ проверено
Размер: 1.4 GB
Как cкачать? Как скачать Счастливого дня смерти через торрент | UTorrent

28-11-2019 20:33  

Отключить всю рекламу на сайте

05-02-2018 19:18 Счастливого дня смерти Скачать торрент  

дегенеративное говно про тупую блонду в дне сурка с маньяком(pb.wtf



08-02-2018 13:10 Счастливого дня смерти Скачать торрент  

Тема Суркова Дня актуальна по сей день. Хочешь +1...2 балла на IMDB? Натягивай свой сценарий на тему зацикла во времени! sarcastic

Ну так-то - скоротать вечерок, посмотреть и забыть. Свои 6 баллов отрабатывает, но не более pb.wtf



    Дорогой пользователь! Огромная просьба, поблагодарите релизера, оцените раздачу и оставьте свои комментарий, если Вы скачали Счастливого дня смерти через торрент бесплатно! Внесите свою лепту в развитие PiratBit!
    Комментировать посты могут только пользователи прошедшие не сложную регистрацию
    Показать сообщения:    

    Счастливого дня смерти через торрент
    Скачать бесплатно Счастливого дня смерти
    Счастливого дня смерти скачать торрент
    Счастливого дня смерти смотреть онлайн
    Cкачать фильм Счастливого дня смерти бесплатно
    Счастливого дня смерти скачать торрент в хорошем качестве
    Счастливого дня смерти смотреть онлайн бесплатно в хорошем качестве


    Вы не можете начинать темы
    Вы не можете отвечать на сообщения
    Вы не можете редактировать свои сообщения
    Вы не можете удалять свои сообщения
    Вы не можете голосовать в опросах
    Вы не можете прикреплять файлы к сообщениям
    Вы можете скачивать файлы