Ссылка на приватное зеркало нашего сайта всего за 1$. Внимание количество ограничено!!!

2 сезон

iTunes

1 сезон

1

2 сезон

2 сезон

iTunes

1 сезон

RePack

30

Новинка

ВАЖНО

ИГРА 18+

pack

RePack

MK11
pack

Забери бонус

RePack

jed

!!Акция!!

Alien_Rage

RePack

fifa19

RePack

Assassins Creed: Odyssey

RePack

NEED FOR SPEED™ PAYBACK

4 сезон

9 сезон

Бесстыжие 9 сезон

Все сериалы

все сериалы на PB.wtf

RePack

FAR CRY 5
  

Видоизмененный углерод / Altered Carbon / Сезон: 1 / Серия: 1-10 из 10 (Ута Бризвитц, Питер Хор, Ник Харран) [2018, фантастика, WEBRip] [MVO] (Hamsterstudio) pb.wtf

Видоизмененный углерод через торрент pb.wtf

Размер: 4.57 GB | Добавлен: 2 года 9 мес. назад | Торрент скачан:68 раз
Скачать  

02-02-2018 18:16 Видоизмененный углерод Скачать торрент  

Видоизмененный углеродAltered Carbon

Год выпуска: 2017
Страна: США
Жанр: фантастика
Продолжительность: ~01:00:00
Перевод: Любительский (многоголосый закадровый) *Hamsterstudio*

Режиссёр: Ута Бризвитц, Питер Хор, Ник Харран

В ролях: Антонио Марциале, Крис Коннер, Хиро Канагава, Кристин Леман, Алика Аутран, Тич Грант, Юэль Киннаман, Хэйли Лоу, Заф Пару, Джеймс Пьюрфой

Описание: Земля, XXVII век. Мир, в котором появилась возможность «сгружать» человеческое сознание и личность из одного тела в другое. Идеальный мир и для преступников, и для полицейских, и для армии, но вряд ли идеальный для бывшего военного спецназовца Такеси Ковача, которого миллиардер Бэнкрофт нанял для расследования гибели одного из своих тел. Внешне — явное самоубийство. В действительности — явное убийство. Вот только воспоминания об убийце уничтожены вместе с телом-клоном.



Качество: WEBRip
Формат: AVI
Видео: XviD, ~ 1100 Кбит/с, 720x360, 23.976 fps
Аудио: MP3, 48 kHz, 2 ch, 128 kbps
Субтитры: отсутствуют
General
Complete name : E:\Altered.Carbon.S01E01.WEBRip.HamsterStudio.Org.avi
Format : AVI
Format/Info : Audio Video Interleave
File size : 514 MiB
Duration : 59 min 29 s
Overall bit rate : 1 207 kb/s
Writing application : VirtualDubMod 1.5.10.2 (build 2540/release)
Writing library : VirtualDubMod build 2540/release

Video
ID : 0
Format : MPEG-4 Visual
Format profile : Advanced Simple@L5
Format settings : BVOP2
Format settings, BVOP : 2
Format settings, QPel : No
Format settings, GMC : No warppoints
Format settings, Matrix : Default (H.263)
Muxing mode : Packed bitstream
Codec ID : XVID
Codec ID/Hint : XviD
Duration : 59 min 29 s
Bit rate : 1 023 kb/s
Width : 720 pixels
Height : 360 pixels
Display aspect ratio : 2.000
Frame rate : 23.976 (24000/1001) FPS
Color space : YUV
Chroma subsampling : 4:2:0
Bit depth : 8 bits
Scan type : Progressive
Compression mode : Lossy
Bits/(Pixel*Frame) : 0.165
Stream size : 435 MiB (85%)
Writing library : XviD 66

Audio
ID : 1
Format : MPEG Audio
Format version : Version 1
Format profile : Layer 3
Format settings : Joint stereo / MS Stereo
Mode : Joint stereo
Mode extension : MS Stereo
Codec ID : 55
Codec ID/Hint : MP3
Duration : 59 min 29 s
Bit rate mode : Constant
Bit rate : 128 kb/s
Channel(s) : 2 channels
Sampling rate : 48.0 kHz
Compression mode : Lossy
Stream size : 54.5 MiB (11%)
Alignment : Aligned on interleaves

скриншот  скриншот  скриншот  скриншот  
Внимание! Раздача ведётся путём добавления новых серий; при каждом добавлении создаётся новый торрент. Чтобы начать докачку новой серии, пользователям необходимо сделать следующее:
(1) остановить скачивание,
(2) удалить старый торрент у себя из клиента (старые серии удалять не надо),
(3) скачать новый торрент и запустить его у себя в клиенте вместо старого, при этом указать клиенту путь в старую папку куда и должно происходить скачивание новых серий.
Ваш клиент при этом должен произвести хеширование (проверку) старой папки (если не производит сам - помогите ему сделать это), и будет докачивать только те серии которых у вас ещё нет. Старые серии при этом не удаляются, а продолжают раздаваться!
Eсли вы уже удалили старые серии, то предотвратить повторную закачку старых серий можно, отжав галочку в соответствующих местах при запуске нового торрента. По возможности, желательно не удалять старые серии как можно дольше чтобы релизёр не столько продолжал раздавать старые серии, а смог сконцентрироваться на новых.
pb.wtf



Скачать Видоизмененный углерод через торрент http://i103.fastpic.ru/big/2018/0202/62/e8fe5c927549f683015c2faf416a0762.jpg Скачать фильм Видоизмененный углерод через торрент бесплантно в хорошем качестве Описание: Земля, XXVII век. Мир, в котором появилась возможность «сгружать» человеческое сознание и личность из одного тела в другое. ... 10 10 7
Торрент: Зарегистрирован [2018-02-05 11:12] · скачан: 68 раз
Статус: √ проверено
Размер: 4.57 GB
Как cкачать? Как скачать Видоизмененный углерод через торрент | qTorrent

% Раздел Тема Автор DL S | L
Зарубежные сериалы [ 39.97 GB ] Видоизменённый углерод / Altered Carbon / Сезон: 2 / Серии: 1-8 из 8 [2020 WEBRip 1080p] 2xMVO [NewStudio LostFilm] bober100 Скачать
5 | 0
Зарубежные сериалы [ 14.08 GB ] Видоизменённый углерод / Altered Carbon / Сезон: 2 / Серии: 1-8 из 8 [2020 WEBRip 1080p] MVO [Jaskier] bober100 Скачать
3 | 0
Зарубежные сериалы [ 14.24 GB ] Видоизмененный углерод / Altered Carbon / Сезон: 2 / Серия: 1-8 из 8 [2020 WEB-DL 1080p] [MVO] killermax2013 Скачать
3 | 0
Зарубежные сериалы [ 15.15 GB ] Видоизменённый углерод / Altered Carbon / Сезон: 2 / Серии: 1-8 из 8 [2020 WEB-DL 1080p] MVO [LostFilm] bober100 Скачать
1 | 0
Зарубежные сериалы [ 35.72 GB ] Видоизменённый углерод / Altered Carbon / Сезон: 2 / Серии: 1-8 из 8 [2020 WEBRip 1080p] DVO [Gears Media] bober100 Скачать
4 | 0
Фильмы без перевода [ 14.09 GB ] Видоизмененный углерод / Altered Carbon / Сезон: 2 / Серия: 1-8 из 8 [2020 WEBRip 1080p] [Multi Subs] killermax2013 Скачать
1 | 0
Зарубежные сериалы [ 17.34 GB ] Видоизмененный углерод / Altered Carbon / Сезон: 1 / Серия: 1-10 из 10 [2018 WEBRip 1080p] [MVO] killermax2013 Скачать
2 | 1


Последний раз редактировалось: killermax2013 (2018-02-05 11:12), всего редактировалось 1 раз

28-11-2019 20:33  

Отключить всю рекламу на сайте

    Дорогой пользователь! Огромная просьба, поблагодарите релизера, оцените раздачу и оставьте свои комментарий, если Вы скачали Видоизмененный углерод через торрент бесплатно! Внесите свою лепту в развитие PiratBit!
    Комментировать посты могут только пользователи прошедшие не сложную регистрацию
    Показать сообщения:    

    Видоизмененный углерод через торрент
    Скачать бесплатно Видоизмененный углерод
    Видоизмененный углерод скачать торрент
    Видоизмененный углерод смотреть онлайн
    Cкачать фильм Видоизмененный углерод бесплатно
    Видоизмененный углерод скачать торрент в хорошем качестве
    Видоизмененный углерод смотреть онлайн бесплатно в хорошем качестве


    Вы не можете начинать темы
    Вы не можете отвечать на сообщения
    Вы не можете редактировать свои сообщения
    Вы не можете удалять свои сообщения
    Вы не можете голосовать в опросах
    Вы не можете прикреплять файлы к сообщениям
    Вы можете скачивать файлы