Ссылка на приватное зеркало нашего сайта всего за 1$. Внимание количество ограничено!!!

2 сезон

iTunes

1 сезон

1

iTunes

iTunes

iTunes

1 сезон

RePack

30

ИГРА 18+

pack

ВАЖНО

!!Акция!!

Alien_RageХит недели

RePack

MK11
pack

Забери бонус

RePack

jed

!!Акция!!

Alien_Rage

RePack

fifa19

RePack

Assassins Creed: Odyssey

RePack

NEED FOR SPEED™ PAYBACK

4 сезон

9 сезон

Бесстыжие 9 сезон

Все сериалы

все сериалы на PB.wtf

RePack

FAR CRY 5
  

Формула 51 / The 51st State (Ронни Ю) [2001 г, боевик, триллер, комедия, криминал, BDRip 720p] DUB, MVO, AVO, VO pb.wtf

Формула 51 через торрент pb.wtf

Раздают: 1 [ 32 KB/s ]
Размер: 4.14 GB | Добавлен: 2 года 8 мес. назад | Торрент скачан:341 раз
Скачать  

03-02-2018 10:26 Формула 51 Скачать торрент  

Формула 51 / The 51st State
Год выпуска: 2001
Страна: Великобритания, Канада
Жанр: боевик, триллер, комедия, криминал
Продолжительность: 01:32:22
Перевод: Дублированный, профессиональный многоголосый, авторский, любительский одноголосый
Субтитры: Русские (ненормативная лексика), английские

Режиссер: Ронни Ю

rating

В ролях: Сэмюэл Л. Джексон, Роберт Карлайл, Найджел Уитми, Роберт Йезек, Эмили Мортимер, Мит Лоуф, Джэйк Абрахам, Мак МакДональд, Аарон Шварц, Дэвид Веббер, Шон Пертуи, Рис Иванс

Описание: Химик-фармацевт МакЭлрой изобрел новый супернаркотик и решил сорвать большой куш. Чтобы осуществить задуманное он отправляется в Ливерпуль. Его босс Ящер приказывает своей помощнице Дакоте убить МакЭлроя. Дакота хорошо знает Ливерпуль — родной город ее бывшего бойфренда Феликса ДеСоуза, невольного партнера МакЭлроя. А Ливерпуль уже «стоит на ушах». И хозяин ночного клуба Айки, и офицер полиции Кэйн, и мелкие гангстеры, и скинхеды — все хотят отщипнуть кусочек от бизнеса с чудо-наркотиком. А тем временем МакЭлрой и Феликс упорно ищут покупателя, готового отстегнуть им 20 миллионов. Но не предаст ли МакЭлроя Феликс? Все станет известно на главном футбольном матче года. Мы узнаем, кто кого подставил. Кому достался наркотик. Кого разорвало на миллионы кусочков. И кто сбежал в шотландский замок стоимостью в милионы долларов…

Качество: BDRip 720p (bipolar)
Формат: MKV
Видео кодек: H.264
Видео: MPEG-4 AVC, 4438 Кбит/с, 1280х544, 23.976 Kадр/с
Аудио #1: AC3, 2 ch, 192 Кбит/с | Дублированный
Аудио #2: AC3, 6 ch, 384 Кбит/с | Профессиональный многоголосый
Аудио #3: AC3, 6 ch, 384 Кбит/с | Авторский (Гаврилов)
Аудио #4: AC3, 6 ch, 384 Кбит/с | Любительский одноголосый (sf@irat ненормативная лексика)
Аудио #5: AC3, 6 ch, 640 Кбит/с | Английский
Релиз от: Koenig
скриншот   скриншот   скриншот   скриншот   скриншот   скриншот  

Общее
Уникальный идентификатор : 192349922112166660282547282336034917195 (0x90B53F5AD3552E4E89D7DD734DDD0B4B)
Полное имя : Formula.51.2001.BDRip.720p.mkv
Формат : Matroska
Версия формата : Version 4 / Version 2
Размер файла : 4,14 Гбайт
Продолжительность : 1 ч. 32 м.
Общий поток : 6419 Кбит/сек
Название фильма : Formula.51.2001.BDRip.720p
Дата кодирования : UTC 2018-02-02 19:02:39
Программа кодирования : mkvmerge v12.0.0 ('Trust / Lust') 32bit
Библиотека кодирования : libebml v1.3.4 + libmatroska v1.4.5
Обложка : Yes
Attachments : cover.jpg

Видео
Идентификатор : 1
Формат : AVC
Формат/Информация : Advanced Video Codec
Профиль формата : High@L4.1
Параметр CABAC формата : Да
Параметр ReFrames формата : 5 кадров
Идентификатор кодека : V_MPEG4/ISO/AVC
Продолжительность : 1 ч. 32 м.
Битрейт : 4438 Кбит/сек
Ширина : 1280 пикселей
Высота : 544 пикселя
Соотношение сторон : 2,35:1
Режим частоты кадров : Постоянный
Частота кадров : 23,976 (24000/1001) кадра/сек
Цветовое пространство : YUV
Субдискретизация насыщенности : 4:2:0
Битовая глубина : 8 бит
Тип развёртки : Прогрессивная
Бит/(Пиксели*Кадры) : 0.266
Размер потока : 2,86 Гбайт (69%)
Заголовок : formula.51.2001.720p.bluray.x264-bipolar
Библиотека кодирования : x264 core 155 r2901 7d0ff22
Настройки программы : cabac=1 / ref=5 / deblock=1:-3:-3 / analyse=0x3:0x133 / me=umh / subme=9 / psy=1 / psy_rd=1.00:0.00 / mixed_ref=1 / me_range=16 / chroma_me=1 / trellis=2 / 8x8dct=1 / cqm=0 / deadzone=21,11 / fast_pskip=0 / chroma_qp_offset=-2 / threads=12 / lookahead_threads=1 / sliced_threads=0 / nr=0 / decimate=1 / interlaced=0 / bluray_compat=0 / constrained_intra=0 / bframes=3 / b_pyramid=2 / b_adapt=1 / b_bias=0 / direct=3 / weightb=1 / open_gop=0 / weightp=2 / keyint=240 / keyint_min=24 / scenecut=40 / intra_refresh=0 / rc_lookahead=50 / rc=2pass / mbtree=1 / bitrate=4438 / ratetol=1.0 / qcomp=0.60 / qpmin=0 / qpmax=69 / qpstep=4 / cplxblur=20.0 / qblur=0.5 / ip_ratio=1.40 / aq=1:1.00
Язык : English
Default : Да
Forced : Нет

Аудио #1
Идентификатор : 2
Формат : AC-3
Формат/Информация : Audio Coding 3
Параметр Endianness формата : Big
Идентификатор кодека : A_AC3
Продолжительность : 1 ч. 32 м.
Вид битрейта : Постоянный
Битрейт : 192 Кбит/сек
Каналы : 2 канала
Расположение каналов : Front: L R
Частота : 48,0 КГц
Частота кадров : 31,250 кадров/сек (1536 spf)
Битовая глубина : 16 бит
Метод сжатия : С потерями
Размер потока : 127 Мбайт (3%)
Заголовок : DUB
Язык : Russian
ServiceKind/String : Complete Main
Default : Да
Forced : Нет

Аудио #2
Идентификатор : 3
Формат : AC-3
Формат/Информация : Audio Coding 3
Параметр Endianness формата : Big
Идентификатор кодека : A_AC3
Продолжительность : 1 ч. 32 м.
Вид битрейта : Постоянный
Битрейт : 384 Кбит/сек
Каналы : 6 каналов
Расположение каналов : Front: L C R, Side: L R, LFE
Частота : 48,0 КГц
Частота кадров : 31,250 кадров/сек (1536 spf)
Битовая глубина : 16 бит
Метод сжатия : С потерями
Размер потока : 254 Мбайт (6%)
Заголовок : MVO
Язык : Russian
ServiceKind/String : Complete Main
Default : Нет
Forced : Нет

Аудио #3
Идентификатор : 4
Формат : AC-3
Формат/Информация : Audio Coding 3
Параметр Endianness формата : Big
Идентификатор кодека : A_AC3
Продолжительность : 1 ч. 32 м.
Вид битрейта : Постоянный
Битрейт : 384 Кбит/сек
Каналы : 6 каналов
Расположение каналов : Front: L C R, Side: L R, LFE
Частота : 48,0 КГц
Частота кадров : 31,250 кадров/сек (1536 spf)
Битовая глубина : 16 бит
Метод сжатия : С потерями
Размер потока : 254 Мбайт (6%)
Заголовок : AVO - Гаврилов
Язык : Russian
ServiceKind/String : Complete Main
Default : Нет
Forced : Нет

Аудио #4
Идентификатор : 5
Формат : AC-3
Формат/Информация : Audio Coding 3
Параметр Endianness формата : Big
Идентификатор кодека : A_AC3
Продолжительность : 1 ч. 32 м.
Вид битрейта : Постоянный
Битрейт : 384 Кбит/сек
Каналы : 6 каналов
Расположение каналов : Front: L C R, Side: L R, LFE
Частота : 48,0 КГц
Частота кадров : 31,250 кадров/сек (1536 spf)
Битовая глубина : 16 бит
Метод сжатия : С потерями
Размер потока : 254 Мбайт (6%)
Заголовок : VO - sf@irat
Язык : Russian
ServiceKind/String : Complete Main
Default : Нет
Forced : Нет

Аудио #5
Идентификатор : 6
Формат : AC-3
Формат/Информация : Audio Coding 3
Параметр Endianness формата : Big
Идентификатор кодека : A_AC3
Продолжительность : 1 ч. 32 м.
Вид битрейта : Постоянный
Битрейт : 640 Кбит/сек
Каналы : 6 каналов
Расположение каналов : Front: L C R, Side: L R, LFE
Частота : 48,0 КГц
Частота кадров : 31,250 кадров/сек (1536 spf)
Битовая глубина : 16 бит
Метод сжатия : С потерями
Размер потока : 423 Мбайт (10%)
Заголовок : Original
Язык : English
ServiceKind/String : Complete Main
Default : Нет
Forced : Нет

Текст #1
Идентификатор : 7
Формат : UTF-8
Идентификатор кодека : S_TEXT/UTF8
Идентификатор кодека/Информация : UTF-8 Plain Text
Продолжительность : 1 ч. 27 м.
Битрейт : 95 бит/сек
ElementCount : 1006
Размер потока : 61,3 Кбайт (0%)
Язык : Russian
Default : Да
Forced : Нет

Текст #2
Идентификатор : 8
Формат : UTF-8
Идентификатор кодека : S_TEXT/UTF8
Идентификатор кодека/Информация : UTF-8 Plain Text
Продолжительность : 1 ч. 31 м.
Битрейт : 60 бит/сек
ElementCount : 1291
Размер потока : 40,5 Кбайт (0%)
Язык : English
Default : Нет
Forced : Нет

Меню
00:00:00.000 : en:00:00:00.000
00:12:25.745 : en:00:12:25.745
00:26:27.795 : en:00:26:27.795
00:42:31.758 : en:00:42:31.758
00:56:35.809 : en:00:56:35.809
01:09:10.438 : en:01:09:10.438
01:18:18.402 : en:01:18:18.402
01:28:15.165 : en:01:28:15.165

pb.wtf



Скачать Формула 51 через торрент http://pic1.kartinco.top/images/11/sv9t3.jpg Скачать фильм Формула 51 через торрент бесплантно в хорошем качестве Описание: Химик-фармацевт МакЭлрой изобрел новый супернаркотик и решил сорвать большой куш. Чтобы осуществить задуманное он отправляется в ... 8.7 10 7
Торрент: Зарегистрирован [2018-02-03 10:26] · скачан: 341 раз
Статус: √ проверено
Размер: 4.14 GB
Как cкачать? Как скачать Формула 51 через торрент | qTorrent

28-11-2019 20:33  

Отключить всю рекламу на сайте

03-02-2018 11:35 Формула 51 Скачать торрент  

Спасибо, забираю! pb.wtf



03-02-2018 18:48 Формула 51 Скачать торрент  

отличный фильм!pb.wtf



    Дорогой пользователь! Огромная просьба, поблагодарите релизера, оцените раздачу и оставьте свои комментарий, если Вы скачали Формула 51 через торрент бесплатно! Внесите свою лепту в развитие PiratBit!
    Комментировать посты могут только пользователи прошедшие не сложную регистрацию
    Показать сообщения:    

    Формула 51 через торрент
    Скачать бесплатно Формула 51
    Формула 51 скачать торрент
    Формула 51 смотреть онлайн
    Cкачать фильм Формула 51 бесплатно
    Формула 51 скачать торрент в хорошем качестве
    Формула 51 смотреть онлайн бесплатно в хорошем качестве


    Вы не можете начинать темы
    Вы не можете отвечать на сообщения
    Вы не можете редактировать свои сообщения
    Вы не можете удалять свои сообщения
    Вы не можете голосовать в опросах
    Вы не можете прикреплять файлы к сообщениям
    Вы можете скачивать файлы