Ссылка на приватное зеркало нашего сайта всего за 1$. Внимание количество ограничено!!!

2 сезон

iTunes

1 сезон

1

2 сезон

2 сезон

iTunes

1 сезон

RePack

30

Новинка

ВАЖНО

ИГРА 18+

pack

RePack

MK11
pack

Забери бонус

RePack

jed

!!Акция!!

Alien_Rage

RePack

fifa19

RePack

Assassins Creed: Odyssey

RePack

NEED FOR SPEED™ PAYBACK

4 сезон

9 сезон

Бесстыжие 9 сезон

Все сериалы

все сериалы на PB.wtf

RePack

FAR CRY 5
  

Видоизмененный углерод / Altered Carbon / Сезон: 1 / Серии 1-10 из 10 (Ута Бризвитц, Питер Хор, Ник Харран) [2018, США, Великобритания, фантастика, WEBRip 720p] MVO [BaibaKo] pb.wtf

Видоизмененный углерод через торрент pb.wtf

Размер: 9.32 GB | Добавлен: 2 года 9 мес. назад | Торрент скачан:398 раз
Скачать  

04-02-2018 02:02 Видоизмененный углерод Скачать торрент  


Видоизмененный углерод / Altered Carbon



  • Год выпуска: 2018
  • Страна: США
  • Жанр: фантастика
  • Продолжительность: ~ 00:55:00 (Серия)
  • Перевод: Профессиональный многоголосый [BaibaKo]
  • Режиссер: Ута Бризвитц, Питер Хор, Ник Харран
  • В ролях:
    Антонио Марциале, Крис Коннер, Хиро Канагава, Кристин Леман, Алика Аутран, Тич Грант, Юэль Киннаман, Хэйли Лоу, Заф Пару, Джеймс Пьюрфой и др.



  • Земля, XXVII век. Мир, в котором появилась возможность «сгружать» человеческое сознание и личность из одного тела в другое. Идеальный мир и для преступников, и для полицейских, и для армии, но вряд ли идеальный для бывшего военного спецназовца Такеси Ковача, которого миллиардер Бэнкрофт нанял для расследования гибели одного из своих тел. Внешне — явное самоубийство. В действительности — явное убийство. Вот только воспоминания об убийце уничтожены вместе с телом-клоном.
  • Рейтинг:

    rating
  • Качество: WEBRip 720p
  • Формат: :MKV
  • Видео кодек: AVC
  • Аудио кодек: AC-3
  • Видео: 1788 Кбит/сек, 1280*720 (16:9), в 23,976 (24000/1001) кадра/сек, AVC
  • Аудио №1: русский 384 Кбит/сек, 48,0 КГц, 16 бит, 6 каналов, AC-3 |[BaibaKo]|
  • Аудио №2: английский 384 Кбит/сек, 48,0 КГц, 16 бит, 6 каналов, AC-3
  • Релиз от: GEKADOL

    Внимание! Раздача ведётся путём добавления новых серий; при каждом добавлении создаётся новый торрент. Чтобы начать докачку новой серии, пользователям необходимо сделать следующее:
    (1) остановить скачивание,
    (2) удалить старый торрент у себя из клиента (старые серии удалять не надо),
    (3) скачать новый торрент и запустить его у себя в клиенте вместо старого, при этом указать клиенту путь в старую папку куда и должно происходить скачивание новых серий.
    Ваш клиент при этом должен произвести хеширование (проверку) старой папки (если не производит сам - помогите ему сделать это), и будет докачивать только те серии которых у вас ещё нет. Старые серии при этом не удаляются, а продолжают раздаваться!
    Eсли вы уже удалили старые серии, то предотвратить повторную закачку старых серий можно, отжав галочку в соответствующих местах при запуске нового торрента. По возможности, желательно не удалять старые серии как можно дольше чтобы релизёр не столько продолжал раздавать старые серии, а смог сконцентрироваться на новых.
    Общее
    Уникальный идентификатор : 261359479972763687470571411196167801992 (0xC4A0013F59BB6F93BFC3826DD43B4C88)
    Полное имя : F:\Видоизмененный углерод (Altered Carbon)\Altered.Carbon.s01e01.HD720p.WEBRip.Rus.Eng.BaibaKo.mkv
    Формат : Matroska
    Версия формата : Version 4 / Version 2
    Размер файла : 1,01 Гбайт
    Продолжительность : 56 м. 15 с.
    Режим общего битрейта : Переменный
    Общий поток : 2558 Кбит/сек
    Дата кодирования : UTC 2018-02-04 00:39:53
    Программа кодирования : mkvmerge v20.0.0 ('I Am The Sun') 64-bit
    Библиотека кодирования : libebml v1.3.5 + libmatroska v1.4.8

    Видео
    Идентификатор : 1
    Формат : AVC
    Формат/Информация : Advanced Video Codec
    Профиль формата : Main@L3.1
    Настройки формата : CABAC / 3 Ref Frames
    Параметр CABAC формата : Да
    Параметр RefFrames формата : 3 кадра
    Идентификатор кодека : V_MPEG4/ISO/AVC
    Продолжительность : 56 м. 15 с.
    Вид битрейта : Переменный
    Битрейт : 1788 Кбит/сек
    Максимальный битрейт : 2670 Кбит/сек
    Ширина : 1280 пикселей
    Высота : 720 пикселей
    Соотношение сторон : 16:9
    Режим частоты кадров : Постоянный
    Частота кадров : 23,976 (24000/1001) кадра/сек
    Цветовое пространство : YUV
    Субдискретизация насыщенности : 4:2:0
    Битовая глубина : 8 бит
    Тип развёртки : Прогрессивная
    Бит/(Пиксели*Кадры) : 0.081
    Размер потока : 719 Мбайт (70%)
    Default : Нет
    Forced : Нет

    Аудио #1
    Идентификатор : 2
    Формат : AC-3
    Формат/Информация : Audio Coding 3
    Идентификатор кодека : A_AC3
    Продолжительность : 56 м. 15 с.
    Вид битрейта : Постоянный
    Битрейт : 384 Кбит/сек
    Каналы : 6 каналов
    Расположение каналов : Front: L C R, Side: L R, LFE
    Частота : 48,0 КГц
    Частота кадров : 31,250 кадров/сек (1536 SPF)
    Битовая глубина : 16 бит
    Метод сжатия : С потерями
    Задержка видео : 10 мс.
    Размер потока : 155 Мбайт (15%)
    Язык : Russian
    ServiceKind/String : Complete Main
    Default : Да
    Forced : Нет

    Аудио #2
    Идентификатор : 3
    Формат : AC-3
    Формат/Информация : Audio Coding 3
    Идентификатор кодека : A_AC3
    Продолжительность : 56 м. 15 с.
    Вид битрейта : Постоянный
    Битрейт : 384 Кбит/сек
    Каналы : 6 каналов
    Расположение каналов : Front: L C R, Side: L R, LFE
    Частота : 48,0 КГц
    Частота кадров : 31,250 кадров/сек (1536 SPF)
    Битовая глубина : 16 бит
    Метод сжатия : С потерями
    Задержка видео : 10 мс.
    Размер потока : 155 Мбайт (15%)
    ServiceKind/String : Complete Main
    Default : Нет
    Forced : Нет



    Внимание! В сериале присутствуют сцены сексуального характера и ненормативная лексика!

    Скриншоты:
    скриншот   скриншот   скриншот   скриншот   скриншот   скриншот   скриншот  
    скриншот  

    Раздача ведётся путём добавления новых серий. Добавлена 6-10 серия (04.05.2018).Просьба перекачать торрент файл.

    pb.wtf



  • Скачать Видоизмененный углерод через торрент http://pic1.kartinco.top/images/11/fkdfa.jpg Скачать фильм Видоизмененный углерод через торрент бесплантно в хорошем качестве qw.png Земля, XXVII век. Мир, в котором появилась возможность «сгружать» человеческое сознание и личность из одного тела в другое. ... 9.1 10 11
    Info! Золотая раздача, скачанное не засчитывается.
    Торрент: Зарегистрирован [2018-02-05 00:44] · скачан: 398 раз
    Статус: √ проверено
    Размер: 9.32 GB
    Как cкачать? Как скачать Видоизмененный углерод через торрент | qTorrent

    % Раздел Тема Автор DL S | L
    Зарубежные сериалы [ 39.97 GB ] Видоизменённый углерод / Altered Carbon / Сезон: 2 / Серии: 1-8 из 8 [2020 WEBRip 1080p] 2xMVO [NewStudio LostFilm] bober100 Скачать
    1 | 0
    Зарубежные сериалы [ 14.08 GB ] Видоизменённый углерод / Altered Carbon / Сезон: 2 / Серии: 1-8 из 8 [2020 WEBRip 1080p] MVO [Jaskier] bober100 Скачать
    3 | 0
    Зарубежные сериалы [ 14.24 GB ] Видоизмененный углерод / Altered Carbon / Сезон: 2 / Серия: 1-8 из 8 [2020 WEB-DL 1080p] [MVO] killermax2013 Скачать
    1 | 0
    Зарубежные сериалы [ 15.15 GB ] Видоизменённый углерод / Altered Carbon / Сезон: 2 / Серии: 1-8 из 8 [2020 WEB-DL 1080p] MVO [LostFilm] bober100 Скачать
    1 | 0
    Зарубежные сериалы [ 35.72 GB ] Видоизменённый углерод / Altered Carbon / Сезон: 2 / Серии: 1-8 из 8 [2020 WEBRip 1080p] DVO [Gears Media] bober100 Скачать
    1 | 0
    Фильмы без перевода [ 14.09 GB ] Видоизмененный углерод / Altered Carbon / Сезон: 2 / Серия: 1-8 из 8 [2020 WEBRip 1080p] [Multi Subs] killermax2013 Скачать
    1 | 0
    Зарубежные сериалы [ 17.34 GB ] Видоизмененный углерод / Altered Carbon / Сезон: 1 / Серия: 1-10 из 10 [2018 WEBRip 1080p] [MVO] killermax2013 Скачать
    2 | 0

    28-11-2019 20:33  

    Отключить всю рекламу на сайте

      Дорогой пользователь! Огромная просьба, поблагодарите релизера, оцените раздачу и оставьте свои комментарий, если Вы скачали Видоизмененный углерод через торрент бесплатно! Внесите свою лепту в развитие PiratBit!
      Комментировать посты могут только пользователи прошедшие не сложную регистрацию
      Показать сообщения:    

      Видоизмененный углерод через торрент
      Скачать бесплатно Видоизмененный углерод
      Видоизмененный углерод скачать торрент
      Видоизмененный углерод смотреть онлайн
      Cкачать фильм Видоизмененный углерод бесплатно
      Видоизмененный углерод скачать торрент в хорошем качестве
      Видоизмененный углерод смотреть онлайн бесплатно в хорошем качестве


      Вы не можете начинать темы
      Вы не можете отвечать на сообщения
      Вы не можете редактировать свои сообщения
      Вы не можете удалять свои сообщения
      Вы не можете голосовать в опросах
      Вы не можете прикреплять файлы к сообщениям
      Вы можете скачивать файлы