новый адрес пиратбит piratbit
Мега распродажа FORZA HORIZON 4 ULTIMATE+ВСЕ DLC+ОНЛАЙН всего за 499р. 349 руб. (супер цена). Внимание количество ограничено!!!

iTunes

1+1

iTunes

мы

iTunes

1

iTunes

Чернобыль

iTunes

Ральф против интернета

Лицензия

ПШазам

Лицензия

Игра престолов

Лицензия

30
pack

ВАЖНО

!!Акция!!

Alien_RageХит недели

RePack

Resident Evil 21

ИГРА 18+

pack

RePack

Metro:Exodus

!!Акция!!

Alien_Rage

RePack

fifa19

RePack

Assassins Creed: Odyssey

RePack

NEED FOR SPEED™ PAYBACK

3 сезон

9 сезон

Бесстыжие 9 сезон

Все сериалы

все сериалы на PB.wtf

RePack

FAR CRY 5
Ребята, катастрофически не хватает 1900р. для оплаты серверов за Октябрь (всвязи с блокировками трафик упал в 3 раза), 1-2р., выручайте.
  

Петля времени / Looper (Райан Джонсон ) [2012, фантастика, боевик, триллер, BDRip 1080p от potroks] DUB, AVO pb.wtf

Петля времени через торрент pb.wtf

Раздают: 1 [ 0 KB/s ]
Размер: 11.25 GB | Добавлен: 1 год 9 мес. назад | Торрент скачан:151 раз
Скачать  

04-02-2018 07:09 Петля времени Скачать торрент  

Петля времени / Looper

Год выпуска: 2012
Страна: США, Китай / FilmDistrict, Endgame Entertainment, DMG Entertainment
Жанр: фантастика, боевик, триллер, драма, криминал
Продолжительность: 01:58:53
Перевод: Дубляж [Blu-ray RUS], Авторский [одноголосый], Любительский [одноголосый]
Субтитры: русские (Groby), русские (Notabenoid), английские (Full), английские (SDH), английские (SDH-Colored)
Навигация по главам: есть

Режиссер: Райан Джонсон
В ролях:

Джозеф Гордон-Левитт (Joe), Брюс Уиллис (Old Joe), Эмили Блант (Sara), Джефф Дэниелс (Abe), Ноа Сеган (Kid Blue), Пол Дано (Seth), Гаррет Диллахант (Jesse), Пайпер Перабо (Suzie), Трейси Томс (Beatrix), Пирс Гэнон (Cid), Сюй Цин (Old Joe's Wife), Фрэнк Бреннан (Old Seth)

Описание: В недалеком будущем, где стали возможны путешествия во времени, некая корпорация убирает нежелательных людей, отправляя их в прошлое. Задача принимающей стороны - убить жертву, стерев тем самым несчастного из истории.



Качество: BDRip 1080p
Формат: MKV
Видео: AVC, 1916x816 (2.35:1), 9260 kbps, 23,976 fps
  • Аудио №1: AC3 / 5.1 / 48 kHz / 640 kbps / 16 bit | Dub - Blu-ray RUS
  • Аудио №2: AC3 / 5.1 / 48 kHz / 640 kbps / 16 bit | AVO - А.Гаврилов
  • Аудио №3: AC3 / 5.1 / 48 kHz / 640 kbps / 16 bit | AVO - Л.Володарский
  • Аудио №4: AC3 / 5.1 / 48 kHz / 640 kbps / 16 bit | AVO - А.Дасевич
  • Аудио №5: AC3 / 5.1 / 48 kHz / 640 kbps / 16 bit | AVO - Ю.Немахов
  • Аудио №6: AC3 / 5.1 / 48 kHz / 448 kbps / 16 bit | VO - В.Замез
  • Аудио №7: AC3 / 5.1 / 48 kHz / 640 kbps / 16 bit | ENG
    General
    Unique ID : 216893754064392779547517842566016908461 (0xA32C37B2B03627C1AA814878188FBCAD)
    Complete name : D:\Petlya.Vremeni.2012.6xRus.Eng.BDRip.1080p.-HELLYWOOD.mkv
    Format : Matroska
    Format version : Version 4 / Version 2
    File size : 11.3 GiB
    Duration : 1 h 58 min
    Overall bit rate : 13.5 Mb/s
    Movie name : Looper (2012)
    Encoded date : UTC 2018-02-04 06:04:31
    Writing application : mkvmerge v5.9.0 ('On The Loose') built on Dec 15 2012 16:39:58
    Writing library : libebml v1.3.0 + libmatroska v1.4.0

    Video
    ID : 1
    Format : AVC
    Format/Info : Advanced Video Codec
    Format profile : High@L4.1
    Format settings, CABAC : Yes
    Format settings, ReFrames : 5 frames
    Codec ID : V_MPEG4/ISO/AVC
    Duration : 1 h 58 min
    Bit rate : 9 260 kb/s
    Width : 1 916 pixels
    Height : 816 pixels
    Display aspect ratio : 2.35:1
    Frame rate mode : Constant
    Frame rate : 23.976 (24000/1001) FPS
    Color space : YUV
    Chroma subsampling : 4:2:0
    Bit depth : 8 bits
    Scan type : Progressive
    Bits/(Pixel*Frame) : 0.247
    Stream size : 7.47 GiB (66%)
    Title : potroks
    Writing library : x264 core 155 r2901M 7d0ff22
    Encoding settings : cabac=1 / ref=5 / deblock=1:-3:-3 / analyse=0x3:0x111 / me=umh / subme=11 / psy=1 / psy_rd=0.98:0.03 / mixed_ref=1 / me_range=48 / chroma_me=1 / trellis=2 / 8x8dct=1 / cqm=0 / deadzone=21,11 / fast_pskip=0 / chroma_qp_offset=-3 / threads=9 / lookahead_threads=2 / sliced_threads=0 / nr=0 / decimate=0 / interlaced=0 / bluray_compat=0 / constrained_intra=0 / bframes=12 / b_pyramid=2 / b_adapt=2 / b_bias=0 / direct=3 / weightb=1 / open_gop=0 / weightp=2 / keyint=240 / keyint_min=23 / scenecut=40 / intra_refresh=0 / rc_lookahead=100 / rc=2pass / mbtree=0 / bitrate=9260 / ratetol=1.0 / qcomp=0.70 / qpmin=0 / qpmax=69 / qpstep=4 / cplxblur=20.0 / qblur=0.5 / vbv_maxrate=50000 / vbv_bufsize=50000 / nal_hrd=none / filler=0 / ip_ratio=1.40 / pb_ratio=1.30 / aq=1:0.70
    Default : Yes
    Forced : No

    Audio #1
    ID : 2
    Format : AC-3
    Format/Info : Audio Coding 3
    Mode extension : CM (complete main)
    Format settings, Endianness : Big
    Codec ID : A_AC3
    Duration : 1 h 58 min
    Bit rate mode : Constant
    Bit rate : 640 kb/s
    Channel(s) : 6 channels
    Channel positions : Front: L C R, Side: L R, LFE
    Sampling rate : 48.0 kHz
    Frame rate : 31.250 FPS (1536 spf)
    Compression mode : Lossy
    Stream size : 544 MiB (5%)
    Title : Dub | DD 5.1 @ 640 kbps - Blu-ray RUS
    Language : Russian
    Default : Yes
    Forced : No

    Audio #2
    ID : 3
    Format : AC-3
    Format/Info : Audio Coding 3
    Mode extension : CM (complete main)
    Format settings, Endianness : Big
    Codec ID : A_AC3
    Duration : 1 h 58 min
    Bit rate mode : Constant
    Bit rate : 640 kb/s
    Channel(s) : 6 channels
    Channel positions : Front: L C R, Side: L R, LFE
    Sampling rate : 48.0 kHz
    Frame rate : 31.250 FPS (1536 spf)
    Compression mode : Lossy
    Stream size : 544 MiB (5%)
    Title : AVO | DD 5.1 @ 640 kbps - A.Gavrilov
    Language : Russian
    Default : No
    Forced : No

    Audio #3
    ID : 4
    Format : AC-3
    Format/Info : Audio Coding 3
    Mode extension : CM (complete main)
    Format settings, Endianness : Big
    Codec ID : A_AC3
    Duration : 1 h 58 min
    Bit rate mode : Constant
    Bit rate : 640 kb/s
    Channel(s) : 6 channels
    Channel positions : Front: L C R, Side: L R, LFE
    Sampling rate : 48.0 kHz
    Frame rate : 31.250 FPS (1536 spf)
    Compression mode : Lossy
    Stream size : 544 MiB (5%)
    Title : AVO | DD 5.1 @ 640 kbps - L.Volodarsky
    Language : Russian
    Default : No
    Forced : No

    Audio #4
    ID : 5
    Format : AC-3
    Format/Info : Audio Coding 3
    Mode extension : CM (complete main)
    Format settings, Endianness : Big
    Codec ID : A_AC3
    Duration : 1 h 58 min
    Bit rate mode : Constant
    Bit rate : 640 kb/s
    Channel(s) : 6 channels
    Channel positions : Front: L C R, Side: L R, LFE
    Sampling rate : 48.0 kHz
    Frame rate : 31.250 FPS (1536 spf)
    Compression mode : Lossy
    Stream size : 544 MiB (5%)
    Title : AVO | DD 5.1 @ 640 kbps - A.Dasevich
    Language : Russian
    Default : No
    Forced : No

    Audio #5
    ID : 6
    Format : AC-3
    Format/Info : Audio Coding 3
    Mode extension : CM (complete main)
    Format settings, Endianness : Big
    Codec ID : A_AC3
    Duration : 1 h 58 min
    Bit rate mode : Constant
    Bit rate : 640 kb/s
    Channel(s) : 6 channels
    Channel positions : Front: L C R, Side: L R, LFE
    Sampling rate : 48.0 kHz
    Frame rate : 31.250 FPS (1536 spf)
    Compression mode : Lossy
    Stream size : 544 MiB (5%)
    Title : AVO | DD 5.1 @ 640 kbps - Yu.Nemahov
    Language : Russian
    Default : No
    Forced : No

    Audio #6
    ID : 7
    Format : AC-3
    Format/Info : Audio Coding 3
    Mode extension : CM (complete main)
    Format settings, Endianness : Big
    Codec ID : A_AC3
    Duration : 1 h 58 min
    Bit rate mode : Constant
    Bit rate : 448 kb/s
    Channel(s) : 6 channels
    Channel positions : Front: L C R, Side: L R, LFE
    Sampling rate : 48.0 kHz
    Frame rate : 31.250 FPS (1536 spf)
    Compression mode : Lossy
    Stream size : 381 MiB (3%)
    Title : VO | DD 5.1 @ 448 kbps - Zamez
    Language : Russian
    Default : No
    Forced : No

    Audio #7
    ID : 8
    Format : AC-3
    Format/Info : Audio Coding 3
    Mode extension : CM (complete main)
    Format settings, Endianness : Big
    Codec ID : A_AC3
    Duration : 1 h 58 min
    Bit rate mode : Constant
    Bit rate : 640 kb/s
    Channel(s) : 6 channels
    Channel positions : Front: L C R, Side: L R, LFE
    Sampling rate : 48.0 kHz
    Frame rate : 31.250 FPS (1536 spf)
    Compression mode : Lossy
    Stream size : 544 MiB (5%)
    Title : Original | DD 5.1 @ 640 kbps
    Language : English
    Default : No
    Forced : No

    Text #1
    ID : 9
    Format : UTF-8
    Codec ID : S_TEXT/UTF8
    Codec ID/Info : UTF-8 Plain Text
    Title : Groby
    Language : Russian
    Default : No
    Forced : No

    Text #2
    ID : 10
    Format : UTF-8
    Codec ID : S_TEXT/UTF8
    Codec ID/Info : UTF-8 Plain Text
    Title : Notabenoid
    Language : Russian
    Default : No
    Forced : No

    Text #3
    ID : 11
    Format : UTF-8
    Codec ID : S_TEXT/UTF8
    Codec ID/Info : UTF-8 Plain Text
    Title : Full
    Language : English
    Default : No
    Forced : No

    Text #4
    ID : 12
    Format : UTF-8
    Codec ID : S_TEXT/UTF8
    Codec ID/Info : UTF-8 Plain Text
    Title : SDH
    Language : English
    Default : No
    Forced : No

    Text #5
    ID : 13
    Format : UTF-8
    Codec ID : S_TEXT/UTF8
    Codec ID/Info : UTF-8 Plain Text
    Title : SDH-Colored
    Language : English
    Default : No
    Forced : No

    Menu
    00:00:00.000 : :Chapter 1
    00:07:27.447 : :Chapter 2
    00:13:31.684 : :Chapter 3
    00:21:22.489 : :Chapter 4
    00:26:48.105 : :Chapter 5
    00:31:51.200 : :Chapter 6
    00:41:28.402 : :Chapter 7
    00:49:33.427 : :Chapter 8
    00:54:10.413 : :Chapter 9
    01:00:35.005 : :Chapter 10
    01:08:09.918 : :Chapter 11
    01:15:23.350 : :Chapter 12
    01:23:57.740 : :Chapter 13
    01:34:25.868 : :Chapter 14
    01:41:04.432 : :Chapter 15
    01:46:29.381 : :Chapter 16
    pb.wtf



  • Скачать Петля времени через торрент http://i2.imageban.ru/out/2018/02/04/15319a234c3f27bb1321f11f842bbc52.png Скачать фильм Петля времени через торрент бесплантно в хорошем качестве Описание: В недалеком будущем, где стали возможны путешествия во времени, некая корпорация убирает нежелательных людей, отправляя их в ... 10 10 9
    Info! Золотая раздача, скачанное не засчитывается.
    Торрент: Зарегистрирован [2018-02-04 07:09] · скачан: 151 раз
    Статус: √ проверено
    Размер: 11.25 GB
    Как cкачать? Как скачать Петля времени через торрент | qTorrent

    % Раздел Тема Автор DL S | L
    Фильмы (Blu-ray, BD-Remux, HDDVD) [ 45.13 GB ] Петля времени / Looper [2012 BD Remux 1080p] [] DUB+4xAVO+MVO bober100 Скачать
    1 | 0
    Фильмы [HD 720p, 1080p] (Хороший звук DUB, MVO) [ 21.66 GB ] Петля времени / Looper [2012 BDRip 1080p by msltel] DUB 3 x AVO VO msltel Скачать
    1 | 0
    Фильмы [HD 720p, 1080p] (Хороший звук DUB, MVO) [ 6.27 GB ] Петля времени / Looper [2012 BDRip 720p by msltel] DUB 3 x AVO VO msltel Скачать
    1 | 0


    >> Регистрируемся здесь <<






    Отзывы и комментарии о схеме читаем и пишем здесь: ---> Отзывы и комментарии о схеме

    Новые благодарочки в телеграм довольных пользователей:
    скриншот   скриншот   скриншот   скриншот   скриншот

    05-02-2018 18:26 Петля времени Скачать торрент  

    Классный фильм.pb.wtf



      Дорогой пользователь! Огромная просьба, поблагодарите релизера, оцените раздачу и оставьте свои комментарий, если Вы скачали Петля времени через торрент бесплатно! Внесите свою лепту в развитие PiratBit!
      Комментировать посты могут только пользователи прошедшие не сложную регистрацию
      Показать сообщения:    

      Петля времени через торрент
      Скачать бесплатно Петля времени
      Петля времени скачать торрент
      Петля времени смотреть онлайн
      Cкачать фильм Петля времени бесплатно
      Петля времени скачать торрент в хорошем качестве
      Петля времени смотреть онлайн бесплатно в хорошем качестве


      Вы не можете начинать темы
      Вы не можете отвечать на сообщения
      Вы не можете редактировать свои сообщения
      Вы не можете удалять свои сообщения
      Вы не можете голосовать в опросах
      Вы не можете прикреплять файлы к сообщениям
      Вы можете скачивать файлы