1 сезон

1 сезон

iTunes

1

КиноПоиск HD

Кинопоиск HD

iTunes

13

1 сезон

RePack

30

Ultimate

ВАЖНО

ИГРА 18+

pack

RePack

MK11
pack

Легкие деньги

RePack

jed

RePack

fifa19

RePack

RDR2

RePack

NEED FOR SPEED™ PAYBACK

4 сезон

9 сезон

Бесстыжие 9 сезон

Все сериалы

все сериалы на PB.wtf

RePack

FAR CRY 5
  
Magnet ссылка

Тёлкохранители против сил тьмы / Erkan & Stefan gegen die Mächte der Finsternis (Аксель Занд) [2002 г., Комедия, приключения, DVDRip-AVC, Профессиональный (многоголосый)] от ExKinoRay pb.wtf

Тёлкохранители против сил тьмы через торрент pb.wtf

Размер: 1.93 GB | Добавлен: 3 года 2 мес. назад | Торрент скачан:25 раз
Скачать  

04-02-2018 09:25 Тёлкохранители против сил тьмы Скачать торрент  

Тёлкохранители против сил тьмы / Erkan & Stefan gegen die Mächte der Finsternis
Год выпуска: 2002
Страна: Германия
Жанр: Комедия, приключения
Продолжительность: 01:16:49
Перевод: Профессиональный (многоголосый)
Субтитры: Русские

Режиссер: Аксель Занд

Премьера в мире: 20 июня 2002

rating

В ролях: Эркан Мария Мусляйтнер, Штефан Луст, Беттина Циммерманн, Леон Боден, Стефан Шульберг, Дитрих Холлиндербаумер, Ральф Херфорт, Джеймс Батлер, Юлия Турнау, Зимоне Дерикс

Описание: Много веков назад самый злобный из всех колдунов Картан и Страж Добра, прекрасная Тана, сражались за обладание магическим кинжалом, который дает неограниченную Влacть над всей Землей. Битва была жестокой, и Картан победил… почти. Тана чудом спаслась, проникнув в кинжал и исчезнув вместе с ним. На протяжении тысячелетий Картан искал этот кинжал, а нашел его у… знаменитых суперпридурков Эркана и Штефана. По загадочной прихоти судьбы древний артефакт попал к парням, умудрившимся к тому же «совершенно случайно» освободить Тану из заточения. Попав в незнакомый ей мир, она обращается за помощью к первым встречным, то есть к Эркану и Штефану. Нашла себе помощничков…

Доп. информация: Перевод: Профессиональный многоголосый (Екатеринбург Арт)

Качество: DVDRip-AVC
Формат: MKV
Видео кодек: MPEG4
Аудио кодек: AC3
Видео: MPEG-4 AVC, 2700 Кбит/с, 704x552@1000x552, 25 кадров/сек
Аудио#1: Русский (AC3, 6 ch, 448 Кбит/с, 48 КГц)
Аудио#2: Немецкий (AC3, 6 ch, 448 Кбит/с, 48 КГц)
Релиз от:




raw [info]: 704x552p 64:45 @ 25/1 fps (cfr)
x264 [info]: using SAR=64/45
x264 [info]: using cpu capabilities: MMX2 SSE2Fast LZCNT
x264 [info]: profile High, level 4.1
x264 [info]: frame I:1073 Avg QP:15.78 size: 67512
x264 [info]: frame P:27179 Avg QP:18.49 size: 27268
x264 [info]: frame B:86973 Avg QP:20.64 size: 8532
x264 [info]: consecutive B-frames: 2.9% 3.8% 13.4% 20.3% 11.1% 44.9% 2.1% 0.5% 0.3% 0.1% 0.2% 0.2% 0.1% 0.0% 0.0% 0.0% 0.1%
-----
Общее
Уникальный идентификатор : 195331587790986586049783928377718287877 (0x92F37ED29BDFC9419D31407831A32E05)
Полное имя : D:\ExKinoRay\Telkohraniteli2.2002.DVDRip-AVC.ExKinoRay.mkv
Формат : Matroska
Версия формата : Version 2
Размер файла : 1,93 Гбайт
Продолжительность : 1 ч. 16 м.
Общий поток : 3598 Кбит/сек
Дата кодирования : UTC 2018-02-04 04:29:52
Программа кодирования : mkvmerge v7.8.0 ('River Man') 32bit built on Apr 3 2015 12:11:22
Библиотека кодирования : libebml v1.3.1 + libmatroska v1.4.2

Видео
Идентификатор : 1
Формат : AVC
Формат/Информация : Advanced Video Codec
Профиль формата : High@L4.1
Параметр CABAC формата : Да
Параметр ReFrames формата : 14 кадров
Идентификатор кодека : V_MPEG4/ISO/AVC
Продолжительность : 1 ч. 16 м.
Битрейт : 2700 Кбит/сек
Ширина : 704 пикселя
Высота : 552 пикселя
Соотношение сторон : 16:9
Соотношение сторон в оригинале : 16:9
Режим частоты кадров : Постоянный
Частота кадров : 25,000 кадров/сек
Цветовое пространство : YUV
Субдискретизация насыщенности : 4:2:0
Битовая глубина : 8 бит
Тип развёртки : Прогрессивная
Бит/(Пиксели*Кадры) : 0.278
Размер потока : 1,41 Гбайт (73%)
Библиотека кодирования : x264 core 148 r2638 7599210
Настройки программы : cabac=1 / ref=14 / deblock=1:-2:-2 / analyse=0x3:0x133 / me=umh / subme=10 / psy=1 / psy_rd=1.05:0.15 / mixed_ref=1 / me_range=32 / chroma_me=1 / trellis=2 / 8x8dct=1 / cqm=0 / deadzone=21,11 / fast_pskip=0 / chroma_qp_offset=-3 / threads=4 / lookahead_threads=1 / sliced_threads=0 / nr=0 / decimate=0 / interlaced=0 / bluray_compat=0 / constrained_intra=0 / bframes=16 / b_pyramid=2 / b_adapt=2 / b_bias=0 / direct=3 / weightb=1 / open_gop=0 / weightp=2 / keyint=250 / keyint_min=25 / scenecut=40 / intra_refresh=0 / rc=2pass / mbtree=0 / bitrate=2700 / ratetol=1.0 / qcomp=0.60 / qpmin=0 / qpmax=69 / qpstep=4 / cplxblur=20.0 / qblur=0.5 / ip_ratio=1.40 / pb_ratio=1.30 / aq=1:1.00
Язык : English
Default : Да
Forced : Нет
Цветовой диапазон : Limited
Основные цвета : BT.601 NTSC
Характеристики трансфера : BT.601
Коэффициенты матрицы : BT.601

Аудио #1
Идентификатор : 2
Формат : AC-3
Формат/Информация : Audio Coding 3
Расширение режима : CM (complete main)
Параметр Endianness формата : Big
Идентификатор кодека : A_AC3
Продолжительность : 1 ч. 16 м.
Вид битрейта : Постоянный
Битрейт : 448 Кбит/сек
Каналы : 6 каналов
Расположение каналов : Front: L C R, Side: L R, LFE
Частота : 48,0 КГц
Частота кадров : 31,250 кадров/сек (1536 spf)
Метод сжатия : С потерями
Размер потока : 246 Мбайт (12%)
Язык : Russian
Default : Да
Forced : Нет

Аудио #2
Идентификатор : 3
Формат : AC-3
Формат/Информация : Audio Coding 3
Расширение режима : CM (complete main)
Параметр Endianness формата : Big
Идентификатор кодека : A_AC3
Продолжительность : 1 ч. 16 м.
Вид битрейта : Постоянный
Битрейт : 448 Кбит/сек
Каналы : 6 каналов
Расположение каналов : Front: L C R, Side: L R, LFE
Частота : 48,0 КГц
Частота кадров : 31,250 кадров/сек (1536 spf)
Метод сжатия : С потерями
Размер потока : 246 Мбайт (12%)
Язык : German
Default : Нет
Forced : Нет

Текст
Идентификатор : 4
Формат : UTF-8
Идентификатор кодека : S_TEXT/UTF8
Идентификатор кодека/Информация : UTF-8 Plain Text
Язык : Russian
Default : Да
Forced : Нет

pb.wtf



Скачать Тёлкохранители против сил тьмы через торрент http://c.radikal.ru/c24/1802/36/156ad459c124.jpg Скачать фильм Тёлкохранители против сил тьмы через торрент бесплантно в хорошем качестве Описание: Много веков назад самый злобный из всех колдунов Картан и Страж Добра, прекрасная Тана, сражались за обладание магическим ... 10 10 1
Info! Золотая раздача, скачанное не засчитывается.
Торрент: Зарегистрирован [2018-02-04 09:25] · скачан: 25 раз
Статус: √ проверено
Размер: 1.93 GB
Как cкачать? Как скачать Тёлкохранители против сил тьмы через торрент | UTorrent

28-11-2019 20:33  

Отключить всю рекламу на сайте

    Дорогой пользователь! Огромная просьба, поблагодарите релизера, оцените раздачу и оставьте свои комментарий, если Вы скачали Тёлкохранители против сил тьмы через торрент бесплатно! Внесите свою лепту в развитие PiratBit!
    Комментировать посты могут только пользователи прошедшие не сложную регистрацию
    Показать сообщения:    

    Тёлкохранители против сил тьмы через торрент
    Скачать бесплатно Тёлкохранители против сил тьмы
    Тёлкохранители против сил тьмы скачать торрент
    Тёлкохранители против сил тьмы смотреть онлайн
    Cкачать фильм Тёлкохранители против сил тьмы бесплатно
    Тёлкохранители против сил тьмы скачать торрент в хорошем качестве
    Тёлкохранители против сил тьмы смотреть онлайн бесплатно в хорошем качестве


    Вы не можете начинать темы
    Вы не можете отвечать на сообщения
    Вы не можете редактировать свои сообщения
    Вы не можете удалять свои сообщения
    Вы не можете голосовать в опросах
    Вы не можете прикреплять файлы к сообщениям
    Вы можете скачивать файлы