1 сезон

3 сезон

iTunes

1

iTunes

MVO

iTunes

13

1 сезон

RePack

30

Deluxe

pack

Лицензия

ВАЖНО

ИГРА 18+

pack

RePack

MK11

RePack

jed

RePack

fifa19

RePack

RDR2

RePack

NEED FOR SPEED™ PAYBACK

4 сезон

9 сезон

Бесстыжие 9 сезон

Все сериалы

все сериалы на PB.wtf

RePack

FAR CRY 5

Anonymous, доброй ночи, мы катастрофически не успеваем собрать деньги на оплату серверов, помогите нам пожалуйста 5,10,15р., для нас важна любая помощь . В качестве благодарности мы отключим Вам всю рекламу на сайте (укажите свой ник в строку Ваше имя)!

×
  
Magnet ссылка

Несколько хороших парней / A Few Good Men (Роб Райнер) [1992, триллер, драма, BDRip-AVC, R.G.Resident] DUB, 2 х MVO, 3 х AVO pb.wtf

Несколько хороших парней через торрент pb.wtf

Размер: 3.83 GB | Добавлен: 3 года 5 мес. назад | Торрент скачан:150 раз
Скачать  

04-02-2018 11:19 Несколько хороших парней Скачать торрент  

Несколько хороших парней / A Few Good Men
««Только победив себя, ты победишь своих врагов»»

Год выпуска: 1992
Страна: США
Жанр: триллер, драма
Продолжительность: 02:18:01
Перевод: Дубляж, многоголосый закадровый, авторский (однголосый)
Субтитры: русские (Full) х 2, английские (Full)
Режиссер: Роб Райнер
В ролях:

Том Круз (Lt. Daniel Kaffee), Деми Мур (Lt. Cdr. JoAnne Galloway), Джек Николсон (Col. Nathan R. Jessup), Кевин Поллак (Lt. (j.g), Sam Weinberg), Кевин Бейкон (Capt. Jack Ross), Кифер Сазерленд (2nd. Lt. Jonathan Kendrick), Джеймс Маршалл (Pfc. Louden Downey), Вольфганг Бодисон (Lance Cpl. Harold W. Dawson), Дж.Т. Уолш (Lt. Col. Matthew Andrew Markinson), Дж.А. Престон (Judge Julius Alexander Randolph), Кьюба Гудинг мл. (Cpl. Carl Hammaker), Мэтт Крэйвен (Lt. Dave Spradling)
Описание:
Два моряка предстают перед судом за незаконную расправу над своим товарищем. Участь защищать их выпадает на долю молодого самоуверенного потомственного адвоката, который явно предпочитает бейсбол жёстким играм закона.
Мировая премьера: 9 декабря 1992

MPAA: R - Лицам до 17 лет обязательно присутствие взрослого
Качество: BDRip-AVC Rip by
Формат: MKV
Видео: AVC, 1024x436 (2.35:1), 1856 kbps, 23,976 fps, 0,173 bpp
Аудио №1: русский / AC3 / 2.0 / 48 kHz / 192 kbps / Профессиональный (полное дублирование)
Аудио №2: русский / AC3 / 5.1 / 48 kHz / 448 kbps / Многоголосый закадровый, R5
Аудио №3: русский / AC3 / 2.0 / 48 kHz / 192 kbps / Многоголосый закадровый, Первый канал
Аудио №4: русский / AC3 / 5.1 / 48 kHz / 448 kbps / Одноголосый закадровый, Андрей Гаврилов
Аудио №5: русский / AC3 / 2.0 / 48 kHz / 192 kbps / Одноголосый закадровый, Леонид Володарский
Аудио №6: русский / AC3 / 2.0 / 48 kHz / 192 kbps / Одноголосый закадровый, Сергей Кузнецов
Аудио №7: английский / AC3 / 5.1 / 48 kHz / 448 kbps / Оригинал
General
Unique ID : 244572342942363405482640656323400563463 (0xB7FEEB7D8751510E95D14B6CFBCDFB07)
Complete name : D:\download\A Few Good Men.1992.BDRip-AVC by schultz R.G.Resident.mkv
Format : Matroska
Format version : Version 4 / Version 2
File size : 3.83 GiB
Duration : 2 h 18 min
Overall bit rate : 3 970 kb/s
Encoded date : UTC 2018-02-04 10:52:10
Writing application : mkvmerge v8.9.0 ('Father Daughter') 64bit
Writing library : libebml v1.3.3 + libmatroska v1.4.4

Video
ID : 1
Format : AVC
Format/Info : Advanced Video Codec
Format profile : High@L4.1
Format settings, CABAC : Yes
Format settings, ReFrames : 10 frames
Codec ID : V_MPEG4/ISO/AVC
Duration : 2 h 18 min
Bit rate : 1 856 kb/s
Width : 1 024 pixels
Height : 436 pixels
Display aspect ratio : 2.35:1
Frame rate mode : Constant
Frame rate : 23.976 (23976/1000) FPS
Color space : YUV
Chroma subsampling : 4:2:0
Bit depth : 8 bits
Scan type : Progressive
Bits/(Pixel*Frame) : 0.173
Stream size : 1.79 GiB (47%)
Writing library : x264 core 146 r2538 121396c
Encoding settings : cabac=1 / ref=10 / deblock=1:-3:-3 / analyse=0x3:0 / me=umh / subme=11 / psy=1 / psy_rd=1.00:0.00 / mixed_ref=1 / me_range=32 / chroma_me=1 / trellis=2 / 8x8dct=1 / cqm=0 / deadzone=21,11 / fast_pskip=0 / chroma_qp_offset=-2 / threads=12 / lookahead_threads=3 / sliced_threads=0 / nr=0 / decimate=0 / interlaced=0 / bluray_compat=0 / constrained_intra=0 / bframes=10 / b_pyramid=2 / b_adapt=2 / b_bias=0 / direct=3 / weightb=1 / open_gop=0 / weightp=2 / keyint=240 / keyint_min=23 / scenecut=40 / intra_refresh=0 / rc_lookahead=40 / rc=2pass / mbtree=0 / bitrate=1856 / ratetol=1.0 / qcomp=0.60 / qpmin=0 / qpmax=69 / qpstep=4 / cplxblur=20.0 / qblur=0.5 / vbv_maxrate=50000 / vbv_bufsize=62500 / nal_hrd=none / filler=0 / ip_ratio=1.40 / pb_ratio=1.30 / aq=1:1.00
Language : English
Default : Yes
Forced : No

Audio #1
ID : 2
Format : AC-3
Format/Info : Audio Coding 3
Mode extension : CM (complete main)
Format settings, Endianness : Big
Codec ID : A_AC3
Duration : 2 h 18 min
Bit rate mode : Constant
Bit rate : 192 kb/s
Channel(s) : 2 channels
Channel positions : Front: L R
Sampling rate : 48.0 kHz
Frame rate : 31.250 FPS (1536 spf)
Compression mode : Lossy
Stream size : 190 MiB (5%)
Title : DUB
Language : Russian
Default : Yes
Forced : No

Audio #2
ID : 3
Format : AC-3
Format/Info : Audio Coding 3
Mode extension : CM (complete main)
Format settings, Endianness : Big
Codec ID : A_AC3
Duration : 2 h 18 min
Bit rate mode : Constant
Bit rate : 448 kb/s
Channel(s) : 6 channels
Channel positions : Front: L C R, Side: L R, LFE
Sampling rate : 48.0 kHz
Frame rate : 31.250 FPS (1536 spf)
Compression mode : Lossy
Stream size : 442 MiB (11%)
Title : MVO (R5)
Language : Russian
Default : No
Forced : No

Audio #3
ID : 4
Format : AC-3
Format/Info : Audio Coding 3
Mode extension : CM (complete main)
Format settings, Endianness : Big
Codec ID : A_AC3
Duration : 2 h 18 min
Bit rate mode : Constant
Bit rate : 192 kb/s
Channel(s) : 2 channels
Channel positions : Front: L R
Sampling rate : 48.0 kHz
Frame rate : 31.250 FPS (1536 spf)
Compression mode : Lossy
Stream size : 190 MiB (5%)
Title : MVO (Первый канал)
Language : Russian
Default : No
Forced : No

Audio #4
ID : 5
Format : AC-3
Format/Info : Audio Coding 3
Mode extension : CM (complete main)
Format settings, Endianness : Big
Codec ID : A_AC3
Duration : 2 h 18 min
Bit rate mode : Constant
Bit rate : 448 kb/s
Channel(s) : 6 channels
Channel positions : Front: L C R, Side: L R, LFE
Sampling rate : 48.0 kHz
Frame rate : 31.250 FPS (1536 spf)
Compression mode : Lossy
Stream size : 442 MiB (11%)
Title : AVO (А. Гаврилов)
Language : Russian
Default : No
Forced : No

Audio #5
ID : 6
Format : AC-3
Format/Info : Audio Coding 3
Mode extension : CM (complete main)
Format settings, Endianness : Big
Codec ID : A_AC3
Duration : 2 h 18 min
Bit rate mode : Constant
Bit rate : 192 kb/s
Channel(s) : 2 channels
Channel positions : Front: L R
Sampling rate : 48.0 kHz
Frame rate : 31.250 FPS (1536 spf)
Compression mode : Lossy
Stream size : 190 MiB (5%)
Title : AVO (Л. Володарский)
Language : Russian
Default : No
Forced : No

Audio #6
ID : 7
Format : AC-3
Format/Info : Audio Coding 3
Mode extension : CM (complete main)
Format settings, Endianness : Big
Codec ID : A_AC3
Duration : 2 h 17 min
Bit rate mode : Constant
Bit rate : 192 kb/s
Channel(s) : 2 channels
Channel positions : Front: L R
Sampling rate : 48.0 kHz
Frame rate : 31.250 FPS (1536 spf)
Compression mode : Lossy
Stream size : 189 MiB (5%)
Title : AVO (С. Кузнецов)
Language : Russian
Default : No
Forced : No

Audio #7
ID : 8
Format : AC-3
Format/Info : Audio Coding 3
Mode extension : CM (complete main)
Format settings, Endianness : Big
Codec ID : A_AC3
Duration : 2 h 18 min
Bit rate mode : Constant
Bit rate : 448 kb/s
Channel(s) : 6 channels
Channel positions : Front: L C R, Side: L R, LFE
Sampling rate : 48.0 kHz
Frame rate : 31.250 FPS (1536 spf)
Compression mode : Lossy
Stream size : 442 MiB (11%)
Title : Оригинал
Language : English
Default : No
Forced : No

Text #1
ID : 9
Format : UTF-8
Codec ID : S_TEXT/UTF8
Codec ID/Info : UTF-8 Plain Text
Duration : 2 h 13 min
Bit rate : 104 b/s
Count of elements : 1240
Stream size : 102 KiB (0%)
Title : Full
Language : Russian
Default : No
Forced : No

Text #2
ID : 10
Format : UTF-8
Codec ID : S_TEXT/UTF8
Codec ID/Info : UTF-8 Plain Text
Duration : 2 h 13 min
Bit rate : 152 b/s
Count of elements : 1986
Stream size : 149 KiB (0%)
Title : Full
Language : Russian
Default : No
Forced : No

Text #3
ID : 11
Format : UTF-8
Codec ID : S_TEXT/UTF8
Codec ID/Info : UTF-8 Plain Text
Duration : 2 h 9 min
Bit rate : 83 b/s
Count of elements : 1692
Stream size : 79.0 KiB (0%)
Title : Full
Language : English
Default : No
Forced : No

Menu
00:00:00.000 : en:Start
00:07:58.895 : en:Case Facts
00:16:32.158 : en:Right Man for the Job
00:25:08.674 : en:Galloway Meets Kaffee
00:40:06.738 : en:Col. Jessep
00:47:42.026 : en:Unit, Corp, God, Country
00:57:11.303 : en:Off the Record
01:05:26.506 : en:Lunch with Jessep
01:13:03.713 : en:"Kendrick Order the Code Red?"
01:22:52.551 : en:Deal Offered & Rejected
01:26:20.133 : en:The Arraignment
01:31:10.382 : en:Preparing Their Case
01:39:52.820 : en:Opening Statements
01:54:37.829 : en:Robert C. Mcguire
02:02:41.229 : en:Cpl. Carl Hammaker
02:10:35.119 : en:Dr. Stone

pb.wtf



Скачать Несколько хороших парней через торрент http://i77.fastpic.ru/big/2016/0417/a7/808a646271c761f7c7d87df3d366b3a7.png Скачать фильм Несколько хороших парней через торрент бесплантно в хорошем качестве Описание: Два моряка предстают перед судом за незаконную расправу над своим товарищем. Участь защищать их выпадает на долю молодого ... 10 10 3
Info! Золотая раздача, скачанное не засчитывается.
Торрент: Зарегистрирован [2018-02-04 11:19] · скачан: 150 раз
Статус: √ проверено
Размер: 3.83 GB
Как cкачать? Как скачать Несколько хороших парней через торрент | UTorrent

28-11-2019 20:33  

Отключить всю рекламу на сайте

    Дорогой пользователь! Огромная просьба, поблагодарите релизера, оцените раздачу и оставьте свои комментарий, если Вы скачали Несколько хороших парней через торрент бесплатно! Внесите свою лепту в развитие PiratBit!
    Комментировать посты могут только пользователи прошедшие не сложную регистрацию
    Показать сообщения:    

    Несколько хороших парней через торрент
    Скачать бесплатно Несколько хороших парней
    Несколько хороших парней скачать торрент
    Несколько хороших парней смотреть онлайн
    Cкачать фильм Несколько хороших парней бесплатно
    Несколько хороших парней скачать торрент в хорошем качестве
    Несколько хороших парней смотреть онлайн бесплатно в хорошем качестве


    Вы не можете начинать темы
    Вы не можете отвечать на сообщения
    Вы не можете редактировать свои сообщения
    Вы не можете удалять свои сообщения
    Вы не можете голосовать в опросах
    Вы не можете прикреплять файлы к сообщениям
    Вы можете скачивать файлы