MEGA SALE -50% FORZA HORIZON 4 ULTIMATE+ВСЕ DLC+ОНЛАЙН всего за 599р. 299 руб. (супер цена). Внимание количество ограничено!!!

iTunes

1+1

iTunes

мы

iTunes

1

iTunes

Чернобыль

iTunes

Ральф против интернета

Лицензия

ПШазам

Лицензия

Игра престолов

Лицензия

30
pack

ВАЖНО

!!Акция!!

Alien_RageХит недели

RePack

Resident Evil 21

ИГРА 18+

pack

RePack

Metro:Exodus

!!Акция!!

Alien_Rage

RePack

fifa19

RePack

Assassins Creed: Odyssey

RePack

NEED FOR SPEED™ PAYBACK

3 сезон

9 сезон

Бесстыжие 9 сезон

Все сериалы

все сериалы на PB.wtf

RePack

FAR CRY 5
Ребята, катастрофически не хватает 7730р. для оплаты серверов за АВГУСТ (всвязи с блокировками трафик упал в 3 раза), 1-2р., выручайте.
  

Иногда великая идея... / Sometimes a Great Notion (Пол Ньюман) [1970 г, боевик, драма, приключения, BDRip] MVO pb.wtf

Иногда великая идея... через торрент pb.wtf

Размер: 1.45 GB | Добавлен: 1 год 7 мес. назад | Торрент скачан:7 раз
Скачать  

04-02-2018 13:44 Иногда великая идея... Скачать торрент  

Иногда великая идея... / Sometimes a Great Notion
Год выпуска: 1970
Страна: США
Жанр: боевик, драма, приключения
Продолжительность: 01:54:35
Перевод: Профессиональный (многоголосый)

Режиссер: Пол Ньюман

rating

В ролях: Пол Ньюман, Генри Фонда, Ли Ремик, Майкл Сарразин, Ричард Джэкел, Линда Лоусон, Клифф Поттс, Сэм Гилман, Ли Де Бру, Джим Берк, Рой Дженсон, Джо Маросс, Рой Пул, Чарльз Тайнер, Бенни Е. Доббинс, Алан Гиббс, Мики Гилберт, Терри Леонард, Фред Лернер, Гари МакЛарти, Хэл Нидэм, Дж.Н. Робертс, Дин Смит, Фред М. Во

Описание: В орегонских лесах, на берегу великой реки Ваконды-Ауги, в городке Ваконда жизнь подобна древнегреческой трагедии без права на ошибку. Посреди слякоти, и осени, и отчаянной гонки лесоповала, и обреченной забастовки клан Стэмперов, записных упрямцев, бродяг и одиночек, живет по своим законам, и нет такой силы, которая способна их сломить. Каждодневная борьба со стихией и непомерно тяжкий труд здесь обретают подлинно ветхозаветные масштабы. Обыкновенные люди вырастают до всесильных гигантов. История любви, работы, упорства и долга оборачивается величайшей притчей столетия. На этой земле полутонов во множество, однако не бывает полумер и ничего невозможно сделать вполсилы.

Качество: BDRip (Sometimes.a.Great.Notion.1970.BDRemux)
Формат: AVI
Видео: XviD, 1618 Кбит/с, 720x304, 23.976 кадр/с
Аудио: AC3, 2 ch, 192 Кбит/с
Релиз от: Koenig
скриншот   скриншот   скриншот   скриншот   скриншот   скриншот  

Общее
Полное имя : Sometimes.a.Great.Notion.1970.BDRip.avi
Формат : AVI
Формат/Информация : Audio Video Interleave
Размер файла : 1,45 Гбайт
Продолжительность : 1 ч. 54 м.
Общий поток : 1811 Кбит/сек
Программа кодирования : VirtualDubMod 1.5.10.2 (build 2540/release)
Библиотека кодирования : VirtualDubMod build 2540/release

Видео
Идентификатор : 0
Формат : MPEG-4 Visual
Профиль формата : Advanced Simple@L5
Параметр BVOP формата : 1
Параметр QPel формата : Нет
Параметр GMC формата : Без точки перехода
Параметр матрицы формата : Выборочная
Идентификатор кодека : XVID
Идентификатор кодека/Подсказка : XviD
Продолжительность : 1 ч. 54 м.
Битрейт : 1610 Кбит/сек
Ширина : 720 пикселей
Высота : 304 пикселя
Соотношение сторон : 2,35:1
Частота кадров : 23,976 (24000/1001) кадра/сек
Цветовое пространство : YUV
Субдискретизация насыщенности : 4:2:0
Битовая глубина : 8 бит
Тип развёртки : Прогрессивная
Метод сжатия : С потерями
Бит/(Пиксели*Кадры) : 0.307
Размер потока : 1,29 Гбайт (89%)
Библиотека кодирования : XviD 65

Аудио
Идентификатор : 1
Формат : AC-3
Формат/Информация : Audio Coding 3
Параметр Endianness формата : Big
Идентификатор кодека : 2000
Продолжительность : 1 ч. 54 м.
Вид битрейта : Постоянный
Битрейт : 192 Кбит/сек
Каналы : 2 канала
Расположение каналов : Front: L R
Частота : 48,0 КГц
Частота кадров : 31,250 кадров/сек (1536 spf)
Битовая глубина : 16 бит
Метод сжатия : С потерями
Размер потока : 157 Мбайт (11%)
Выравнивание : Разделение по промежуткам
Продолжительность промежутка : 42 мс. (1,00 видеокадр)
Время предзагрузки промежутка : 500 мс.
ServiceKind/String : Complete Main

pb.wtf



Скачать Иногда великая идея... через торрент http://img12.lostpic.net/2018/02/04/f8c2835e8b193170634fa663ccf45979.jpg Скачать фильм Иногда великая идея... через торрент бесплантно в хорошем качестве Описание: В орегонских лесах, на берегу великой реки Ваконды-Ауги, в городке Ваконда жизнь подобна древнегреческой трагедии без права на ... 5 10 1
Торрент: Зарегистрирован [2018-02-04 13:44] · скачан: 7 раз
Статус: √ проверено
Размер: 1.45 GB
Как cкачать? Как скачать Иногда великая идея... через торрент | qTorrent

% Раздел Тема Автор DL S | L
Фильмы [HD 720p, 1080p] (Хороший звук DUB, MVO) [ 9.69 GB ] Иногда великая идея... / Sometimes a Great Notion [1970 BDRip 1080p] MVO msltel Скачать
1 | 0
Фильмы [HD 720p, 1080p] (Хороший звук DUB, MVO) [ 3.98 GB ] Иногда великая идея... / Sometimes a Great Notion [1970 BDRip 720p] MVO msltel Скачать
1 | 0
Фильмы до 2000 г. [ 2.63 GB ] Иногда великая идея... / Sometimes a Great Notion [1970 BDRip AVC] MVO msltel Скачать
1 | 0


>> Регистрируемся здесь <<






Отзывы и комментарии о схеме читаем и пишем здесь: ---> Отзывы и комментарии о схеме

Новые благодарочки в телеграм довольных пользователей:
скриншот   скриншот   скриншот   скриншот   скриншот
    Дорогой пользователь! Огромная просьба, поблагодарите релизера, оцените раздачу и оставьте свои комментарий, если Вы скачали Иногда великая идея... через торрент бесплатно! Внесите свою лепту в развитие PiratBit!
    Комментировать посты могут только пользователи прошедшие не сложную регистрацию
    Показать сообщения:    

    Иногда великая идея... через торрент
    Скачать бесплатно Иногда великая идея...
    Иногда великая идея... скачать торрент
    Иногда великая идея... смотреть онлайн
    Cкачать фильм Иногда великая идея... бесплатно
    Иногда великая идея... скачать торрент в хорошем качестве
    Иногда великая идея... смотреть онлайн бесплатно в хорошем качестве


    Вы не можете начинать темы
    Вы не можете отвечать на сообщения
    Вы не можете редактировать свои сообщения
    Вы не можете удалять свои сообщения
    Вы не можете голосовать в опросах
    Вы не можете прикреплять файлы к сообщениям
    Вы можете скачивать файлы