2 сезон

iTunes

MVO

1

2 сезон

iTunes

iTunes

1 сезон

RePack

30

Новинка

ВАЖНО

ИГРА 18+

pack

RePack

MK11
pack

Легкие деньги

RePack

jed

RePack

fifa19

RePack

RDR2

RePack

NEED FOR SPEED™ PAYBACK

4 сезон

9 сезон

Бесстыжие 9 сезон

Все сериалы

все сериалы на PB.wtf

RePack

FAR CRY 5

Anonymous, добрый вечер, мы не успеваем собрать деньги на оплату серверов за декабрь и январь, помогите нам пожалуйста в это трудное время. В качестве благодарности мы отключим Вам всю рекламу на сайте (укажите свой ник в строку Ваше имя)!

×
  
Magnet ссылка

Праздничный переполох / Le sens de la fête (Оливье Накаш, Эрик Толедано) [2017, комедия, HDRip(AVC)] [DUB] by WSM pb.wtf

Скачать  

04-02-2018 16:56 Праздничный переполох Скачать торрент  

Праздничный переполох / Le sens de la fête

Год выпуска: 2017
Страна: Франция, Канада, Бельгия
Жанр: комедия
Продолжительность: 01:55:23
Перевод: Дубляж | iTunes
Режиссер: Оливье Накаш, Эрик Толедано
В ролях:

Жан-Пьер Бакри (Max Angély), Жан-Поль Рув (Guy), Жиль Леллуш (James), Венсан Макен (Julien), Эй Айдара (Adèle), Сюзанн Клеман (Josiane), Элбан Иванов (Samy), Элен Венсан (La mère de Pierre), Бенжамен Лаверн (Pierre, le marié), Жюдит Шемла (Héléna, la mariée), Уилльям Лебхил (Seb), Кевин Азиз (Patrice)
Описание:
Фильм рассказывает о Максе, который занимается организацией различных мероприятий. И вот однажды он берется устроить свадьбу в замке XVII века, но все пошло не так. Ему попадается безответственный и неумелый помощник, официанты начинают бунтовать и отказываются следовать его инструкциям, жених оказывается очень требовательным и эгоцентричным, к тому же система электропроводки в замке крайне ненадежна, а еще и возникают проблемы с диджеем и многое другое. Профессиональные неурядицы переплетаются с личными конфликтами. Ситуация накаляется. Сможет ли Макс разобраться со всем этим и устроить своим клиентам чудесный праздник?
Мировая премьера: 5 июля 2017
rating
Релиз от:
Качество: HDRip(AVC)
Формат: MKV
Видео кодек: AVC
Аудио кодек: AC3
Видео: AVC, 1024x552 (1.85:1), 2460 kbps, 24 fps, 0,181 bpp
Аудио №1: AC3 / 5.1 / 48 kHz / 384 kbps / Русский
Аудио №2: AC3 / 5.1 / 48 kHz / 384 kbps / Французский
Навигация по главам: есть
General
Unique ID : 229337250486137397686962640444455559557 (0xAC88BF704F6E46CAD625A4AF2F4AA185)
Format : Matroska
Format version : Version 4 / Version 2
File size : 2.60 GiB
Duration : 1 h 55 min
Overall bit rate : 3 229 kb/s
Movie name : Праздничный переполох.2017.HDRip(AVC) by WSM
Encoded date : UTC 2018-02-04 16:38:13
Writing application : mkvmerge v20.0.0 ('I Am The Sun') 64-bit
Writing library : libebml v1.3.5 + libmatroska v1.4.8

Video
ID : 1
Format : AVC
Format/Info : Advanced Video Codec
Format profile : High@L4.1
Format settings, CABAC : Yes
Format settings, ReFrames : 10 frames
Codec ID : V_MPEG4/ISO/AVC
Duration : 1 h 55 min
Bit rate : 2 460 kb/s
Width : 1 024 pixels
Height : 552 pixels
Display aspect ratio : 1.85:1
Frame rate mode : Constant
Frame rate : 24.000 FPS
Color space : YUV
Chroma subsampling : 4:2:0
Bit depth : 8 bits
Scan type : Progressive
Bits/(Pixel*Frame) : 0.181
Stream size : 1.98 GiB (76%)
Title : Праздничный переполох.2017.HDRip(AVC) by WSM
Writing library : x264 core 152 r2851 ba24899
Encoding settings : cabac=1 / ref=10 / deblock=1:-3:-3 / analyse=0x3:0x133 / me=umh / subme=10 / psy=0 / mixed_ref=1 / me_range=48 / chroma_me=1 / trellis=2 / 8x8dct=1 / cqm=0 / deadzone=21,11 / fast_pskip=0 / chroma_qp_offset=0 / threads=6 / lookahead_threads=1 / sliced_threads=0 / nr=0 / decimate=0 / interlaced=0 / bluray_compat=0 / constrained_intra=0 / bframes=5 / b_pyramid=2 / b_adapt=2 / b_bias=0 / direct=3 / weightb=1 / open_gop=0 / weightp=2 / keyint=250 / keyint_min=23 / scenecut=40 / intra_refresh=0 / rc=2pass / mbtree=0 / bitrate=2460 / ratetol=1.0 / qcomp=0.60 / qpmin=10 / qpmax=51 / qpstep=4 / cplxblur=20.0 / qblur=0.5 / ip_ratio=1.40 / pb_ratio=1.30 / aq=1:1.00
Default : Yes
Forced : No

Audio #1
ID : 2
Format : AC-3
Format/Info : Audio Coding 3
Mode extension : CM (complete main)
Format settings, Endianness : Big
Codec ID : A_AC3
Duration : 1 h 55 min
Bit rate mode : Constant
Bit rate : 384 kb/s
Channel(s) : 6 channels
Channel positions : Front: L C R, Side: L R, LFE
Sampling rate : 48.0 kHz
Frame rate : 31.250 FPS (1536 spf)
Compression mode : Lossy
Stream size : 317 MiB (12%)
Language : Russian
Default : Yes
Forced : No

Audio #2
ID : 3
Format : AC-3
Format/Info : Audio Coding 3
Mode extension : CM (complete main)
Format settings, Endianness : Big
Codec ID : A_AC3
Duration : 1 h 55 min
Bit rate mode : Constant
Bit rate : 384 kb/s
Channel(s) : 6 channels
Channel positions : Front: L C R, Side: L R, LFE
Sampling rate : 48.0 kHz
Frame rate : 31.250 FPS (1536 spf)
Compression mode : Lossy
Stream size : 317 MiB (12%)
Language : French
Default : No
Forced : No

Menu
00:00:00.000 : en:00:00:00.000
00:07:14.833 : en:00:07:14.833
00:16:18.208 : en:00:16:18.208
00:24:51.542 : en:00:24:51.542
00:32:38.208 : en:00:32:38.208
00:43:28.375 : en:00:43:28.375
00:53:42.708 : en:00:53:42.708
01:02:56.167 : en:01:02:56.167
01:11:01.667 : en:01:11:01.667
01:23:37.292 : en:01:23:37.292
01:35:25.792 : en:01:35:25.792
01:45:15.292 : en:01:45:15.292
pb.wtf



28-11-2019 20:33  

Отключить всю рекламу на сайте

04-02-2018 18:17 Праздничный переполох Скачать торрент  

Рип будет переделан! Кривой исходник! pb.wtf



    Дорогой пользователь! Огромная просьба, поблагодарите релизера, оцените раздачу и оставьте свои комментарий, если Вы скачали Праздничный переполох через торрент бесплатно! Внесите свою лепту в развитие PiratBit!
    Комментировать посты могут только пользователи прошедшие не сложную регистрацию
    Показать сообщения:    

    Праздничный переполох через торрент
    Скачать бесплатно Праздничный переполох
    Праздничный переполох скачать торрент
    Праздничный переполох смотреть онлайн
    Cкачать фильм Праздничный переполох бесплатно
    Праздничный переполох скачать торрент в хорошем качестве
    Праздничный переполох смотреть онлайн бесплатно в хорошем качестве


    Вы не можете начинать темы
    Вы не можете отвечать на сообщения
    Вы не можете редактировать свои сообщения
    Вы не можете удалять свои сообщения
    Вы не можете голосовать в опросах
    Вы не можете прикреплять файлы к сообщениям
    Вы можете скачивать файлы