Ссылка на приватное зеркало нашего сайта всего за 1$. Внимание количество ограничено!!!

2 сезон

iTunes

1 сезон

1

iTunes

iTunes

iTunes

1 сезон

RePack

30

ИГРА 18+

pack

ВАЖНО

!!Акция!!

Alien_RageХит недели

RePack

MK11
pack

Забери бонус

RePack

jed

!!Акция!!

Alien_Rage

RePack

fifa19

RePack

Assassins Creed: Odyssey

RePack

NEED FOR SPEED™ PAYBACK

4 сезон

9 сезон

Бесстыжие 9 сезон

Все сериалы

все сериалы на PB.wtf

RePack

FAR CRY 5
  

Империя Солнца / Empire of the Sun (Стивен Спилберг) [1987, драма, военный, история, BDRip 720p by msltel] DUB, MVO, 2 x AVO pb.wtf

Империя Солнца через торрент pb.wtf

Размер: 8.44 GB | Добавлен: 2 года 8 мес. назад | Торрент скачан:65 раз
Скачать  

05-02-2018 06:48 Империя Солнца Скачать торрент  

Название: Империя Солнца
Оригинальное название: Empire of the Sun
Год выпуска: 1987
Страна: США
Жанр: драма, военный, история
Продолжительность: 02:32:49
Перевод: дублированный, профессиональный многоголосый, авторский

Режиссер: Стивен Спилберг
В ролях: Кристиан Бэйл, Джон Малкович, Миранда Ричардсон, Найджел Хэверс, Джо Пантолиано, Лесли Филлипс, Масато Ибу, Эмили Ричард, Руперт Фрейзер, Питер Гэйл, Такаторо Катаока, Бен Стиллер, Дэвид Найдорф, Ральф Сеймур, Роберт Стивенс (I), Чжай Найшэ, Гуц Исимацу, Эмма Пайпер, Джеймс Уолкер

О фильме: 1941 год. Вторая мировая война. Юный англичанин Джим Грэхем живёт в богатой семье в Китае. Когда японцы вторгаются в Шанхай, Джим теряется в толпе и остаётся без родителей в захваченном городе. Во время скитаний находит друга Бэйзи, с которым попадает в лагерь заключённых. Среди болезней и нехватки пищи Джим борется за выживание, вынося предательства и оскорбления. Нити, связывающие его с детством, ослабевают, но Джим пытается сохранить дух и достоинство... Фильм снят по мотивам автобиографичесого романа Дж. Г. Бэлларда «Империя Солнца» (Empire of the Sun, 1984).



Качество: BDRip 720p
Формат: MKV
Видео: MPEG-4 AVC, 6177 Kбит/с, 1280х720, 23.976 кадр/с
Аудио 1: русский, AC3, 448 kbps, 6 ch, 48 kHz [дублированный, Мост-Видео]
Аудио 2: русский, AC3, 192 kbps, 6 ch, 48 kHz [закадровый многоголосый]
Аудио 3: русский, AC3, 192 kbps, 6 ch, 48 kHz [авторский, Леонид Володарский]
Аудио 4: русский, AC3, 448 kbps, 6 ch, 48 kHz [авторский, Сергей Рябов]
Аудио 5: английский, AC3, 448 kbps, 6 ch, 48 kHz [оригинал]
Субтитры 1: русские
Субтитры 2: английские
Неименованные главы/чаптеры.
Общее
Уникальный идентификатор : 254760262311022766031510123740081119473 (0xBFA90AB24199D24BAF8B645F54E360F1)
Полное имя : D:\Video\Империя солнца.1987.BDRip.720p by msltel.mkv
Формат : Matroska
Версия формата : Version 4 / Version 2
Размер файла : 8,44 Гбайт
Продолжительность : 2 ч. 32 м.
Общий поток : 7908 Кбит/сек
Название фильма : Rip by msltel
Дата кодирования : UTC 2018-02-05 02:56:12
Программа кодирования : mkvmerge v8.2.0 ('World of Adventure') 64bit
Библиотека кодирования : libebml v1.3.1 + libmatroska v1.4.2

Видео
Идентификатор : 1
Формат : AVC
Формат/Информация : Advanced Video Codec
Профиль формата : High@L4.1
Настройки формата : CABAC / 9 Ref Frames
Параметр CABAC формата : Да
Параметр RefFrames формата : 9 кадров
Идентификатор кодека : V_MPEG4/ISO/AVC
Продолжительность : 2 ч. 32 м.
Битрейт : 6177 Кбит/сек
Ширина : 1280 пикселей
Высота : 720 пикселей
Соотношение сторон : 16:9
Режим частоты кадров : Постоянный
Частота кадров : 23,976 (24000/1001) кадра/сек
Цветовое пространство : YUV
Субдискретизация насыщенности : 4:2:0
Битовая глубина : 8 бит
Тип развёртки : Прогрессивная
Бит/(Пиксели*Кадры) : 0.280
Размер потока : 6,59 Гбайт (78%)
Библиотека кодирования : x264 core 146 r2538 121396c
Настройки программы : cabac=1 / ref=9 / deblock=1:-3:-2 / analyse=0x3:0x113 / me=umh / subme=11 / psy=1 / psy_rd=1.00:0.15 / mixed_ref=1 / me_range=32 / chroma_me=1 / trellis=2 / 8x8dct=1 / cqm=0 / deadzone=21,11 / fast_pskip=0 / chroma_qp_offset=-3 / threads=6 / lookahead_threads=1 / sliced_threads=0 / nr=0 / decimate=1 / interlaced=0 / bluray_compat=0 / constrained_intra=0 / bframes=8 / b_pyramid=2 / b_adapt=2 / b_bias=0 / direct=1 / weightb=1 / open_gop=0 / weightp=2 / keyint=230 / keyint_min=23 / scenecut=40 / intra_refresh=0 / rc_lookahead=40 / rc=crf / mbtree=0 / crf=19.5 / qcomp=0.60 / qpmin=0 / qpmax=69 / qpstep=4 / vbv_maxrate=62500 / vbv_bufsize=78125 / crf_max=0.0 / nal_hrd=none / filler=0 / ip_ratio=1.40 / pb_ratio=1.30 / aq=1:1.00
Язык : English
Default : Да
Forced : Нет

Аудио #1
Идентификатор : 2
Формат : AC-3
Формат/Информация : Audio Coding 3
Идентификатор кодека : A_AC3
Продолжительность : 2 ч. 32 м.
Вид битрейта : Постоянный
Битрейт : 448 Кбит/сек
Каналы : 6 каналов
Расположение каналов : Front: L C R, Side: L R, LFE
Частота : 48,0 КГц
Частота кадров : 31,250 кадров/сек (1536 SPF)
Битовая глубина : 16 бит
Метод сжатия : С потерями
Размер потока : 490 Мбайт (6%)
Заголовок : DUB Мост-Видео
Язык : Russian
ServiceKind/String : Complete Main
Default : Да
Forced : Нет

Аудио #2
Идентификатор : 3
Формат : AC-3
Формат/Информация : Audio Coding 3
Идентификатор кодека : A_AC3
Продолжительность : 2 ч. 32 м.
Вид битрейта : Постоянный
Битрейт : 192 Кбит/сек
Каналы : 2 канала
Расположение каналов : Front: L R
Частота : 48,0 КГц
Частота кадров : 31,250 кадров/сек (1536 SPF)
Битовая глубина : 16 бит
Метод сжатия : С потерями
Размер потока : 210 Мбайт (2%)
Заголовок : MVO
Язык : Russian
ServiceKind/String : Complete Main
Default : Нет
Forced : Нет

Аудио #3
Идентификатор : 4
Формат : AC-3
Формат/Информация : Audio Coding 3
Идентификатор кодека : A_AC3
Продолжительность : 2 ч. 32 м.
Вид битрейта : Постоянный
Битрейт : 192 Кбит/сек
Каналы : 2 канала
Расположение каналов : Front: L R
Частота : 48,0 КГц
Частота кадров : 31,250 кадров/сек (1536 SPF)
Битовая глубина : 16 бит
Метод сжатия : С потерями
Размер потока : 210 Мбайт (2%)
Заголовок : Леонид Володарский
Язык : Russian
ServiceKind/String : Complete Main
Default : Нет
Forced : Нет

Аудио #4
Идентификатор : 5
Формат : AC-3
Формат/Информация : Audio Coding 3
Идентификатор кодека : A_AC3
Продолжительность : 2 ч. 32 м.
Вид битрейта : Постоянный
Битрейт : 448 Кбит/сек
Каналы : 6 каналов
Расположение каналов : Front: L C R, Side: L R, LFE
Частота : 48,0 КГц
Частота кадров : 31,250 кадров/сек (1536 SPF)
Битовая глубина : 16 бит
Метод сжатия : С потерями
Размер потока : 490 Мбайт (6%)
Заголовок : Сергей Рябов
Язык : Russian
ServiceKind/String : Complete Main
Default : Нет
Forced : Нет

Аудио #5
Идентификатор : 6
Формат : AC-3
Формат/Информация : Audio Coding 3
Идентификатор кодека : A_AC3
Продолжительность : 2 ч. 32 м.
Вид битрейта : Постоянный
Битрейт : 448 Кбит/сек
Каналы : 6 каналов
Расположение каналов : Front: L C R, Side: L R, LFE
Частота : 48,0 КГц
Частота кадров : 31,250 кадров/сек (1536 SPF)
Битовая глубина : 16 бит
Метод сжатия : С потерями
Размер потока : 490 Мбайт (6%)
Заголовок : original
Язык : English
ServiceKind/String : Complete Main
Default : Нет
Forced : Нет

Текст #1
Идентификатор : 7
Формат : UTF-8
Идентификатор кодека : S_TEXT/UTF8
Идентификатор кодека/Информация : UTF-8 Plain Text
Продолжительность : 2 ч. 23 м.
Битрейт : 42 бит/сек
ElementCount : 769
Размер потока : 44,6 Кбайт (0%)
Заголовок : русские
Язык : Russian
Default : Нет
Forced : Нет

Текст #2
Идентификатор : 8
Формат : UTF-8
Идентификатор кодека : S_TEXT/UTF8
Идентификатор кодека/Информация : UTF-8 Plain Text
Продолжительность : 2 ч. 32 м.
Битрейт : 24 бит/сек
ElementCount : 877
Размер потока : 27,4 Кбайт (0%)
Заголовок : английские
Язык : English
Default : Нет
Forced : Нет

Меню
00:00:00.000 : :Chapter 01
00:01:14.572 : :Chapter 02
00:04:19.717 : :Chapter 03
00:07:44.378 : :Chapter 04
00:09:22.519 : :Chapter 05
00:13:19.214 : :Chapter 06
00:15:32.221 : :Chapter 07
00:20:46.287 : :Chapter 08
00:23:34.997 : :Chapter 09
00:28:02.762 : :Chapter 10
00:32:15.142 : :Chapter 11
00:36:41.239 : :Chapter 12
00:41:46.253 : :Chapter 13
00:43:50.043 : :Chapter 14
00:49:00.855 : :Chapter 15
00:52:23.931 : :Chapter 16
00:54:19.255 : :Chapter 17
01:01:03.909 : :Chapter 18
01:05:38.393 : :Chapter 19
01:08:21.095 : :Chapter 20
01:09:55.858 : :Chapter 21
01:13:44.837 : :Chapter 22
01:16:20.701 : :Chapter 23
01:20:20.314 : :Chapter 24
01:24:16.510 : :Chapter 25
01:26:56.586 : :Chapter 26
01:30:19.456 : :Chapter 27
01:37:04.902 : :Chapter 28
01:39:23.957 : :Chapter 29
01:42:58.837 : :Chapter 30
01:47:11.006 : :Chapter 31
01:48:50.439 : :Chapter 32
01:52:21.234 : :Chapter 33
01:57:23.411 : :Chapter 34
01:59:08.640 : :Chapter 35
02:01:27.572 : :Chapter 36
02:03:14.429 : :Chapter 37
02:05:00.451 : :Chapter 38
02:07:16.002 : :Chapter 39
02:09:11.911 : :Chapter 40
02:12:12.006 : :Chapter 41
02:16:22.297 : :Chapter 42
02:20:10.277 : :Chapter 43
02:22:10.772 : :Chapter 44
02:26:17.808 : :Chapter 45
pb.wtf



Скачать Империя Солнца через торрент https://b.radikal.ru/b23/1802/b8/0052fc19c5e3.png Скачать фильм Империя Солнца через торрент бесплантно в хорошем качестве О фильме: 1941 год. Вторая мировая война. Юный англичанин Джим Грэхем живёт в богатой семье в Китае. Когда японцы вторгаются в Шанхай, Джим ... 10 10 6
Info! Золотая раздача, скачанное не засчитывается.
Торрент: Зарегистрирован [2018-02-05 06:48] · скачан: 65 раз
Статус: √ проверено
Размер: 8.44 GB
Как cкачать? Как скачать Империя Солнца через торрент | qTorrent

% Раздел Тема Автор DL S | L
Фильмы [HD 720p, 1080p] (Хороший звук DUB, MVO) [ 25.76 GB ] Империя Солнца / Empire of the Sun [1987 военный история BDRip 1080p by msltel] DUB MVO 2 x AVO msltel Скачать
1 | 0

28-11-2019 20:33  

Отключить всю рекламу на сайте

    Дорогой пользователь! Огромная просьба, поблагодарите релизера, оцените раздачу и оставьте свои комментарий, если Вы скачали Империя Солнца через торрент бесплатно! Внесите свою лепту в развитие PiratBit!
    Комментировать посты могут только пользователи прошедшие не сложную регистрацию
    Показать сообщения:    

    Империя Солнца через торрент
    Скачать бесплатно Империя Солнца
    Империя Солнца скачать торрент
    Империя Солнца смотреть онлайн
    Cкачать фильм Империя Солнца бесплатно
    Империя Солнца скачать торрент в хорошем качестве
    Империя Солнца смотреть онлайн бесплатно в хорошем качестве


    Вы не можете начинать темы
    Вы не можете отвечать на сообщения
    Вы не можете редактировать свои сообщения
    Вы не можете удалять свои сообщения
    Вы не можете голосовать в опросах
    Вы не можете прикреплять файлы к сообщениям
    Вы можете скачивать файлы