>

8.4

Хороший звук

6.1

MVO

6.4

Line & MVO

1

7.4

1 сезон

6.8

iTunes

7.2

1 сезон

13

6.7

1 сезон

8.3

RePack

30

Deluxe

pack

9.9

Лицензия

ВАЖНО

ИГРА 18+

pack

7.3

RePack

MK11

7.7

RePack

jed

7.8

RePack

fifa19

8.5

RePack

RDR2

RePack

NEED FOR SPEED™ PAYBACK

4 сезон

9 сезон

Бесстыжие 9 сезон

Все сериалы

все сериалы на PB.wtf

RePack

FAR CRY 5

Anonymous, добрый вечер, мы катастрофически не успеваем собрать деньги на оплату серверов, помогите нам пожалуйста 5,10,15р., для нас важна любая помощь . В качестве благодарности мы отключим Вам всю рекламу на сайте (укажите свой ник в строку Ваше имя)!

×
  
Magnet ссылка

Достигаев и другие (Юрий Музыкант, Наталья Рашевская) [1959, СССР, драма, DVDRip от AVP Studio] pb.wtf

Достигаев и другие через торрент pb.wtf

Размер: 1.67 GB | Добавлен: 3 года 7 мес. назад | Торрент скачан:10 раз
Смотреть онлайн Достигаев и другие | Скачать    Ребята, помогите собрать деньги на оплату серверов!!!

05-02-2018 08:35 Достигаев и другие Скачать торрент  

Достигаев и другие
Страна: СССР
Производство: Ленфильм

Жанр: драма
Год выпуска: 1959
Продолжительность: 01:35:21

Перевод: Не требуется
Cубтитры: нет
Оригинальная аудиодорожка: русский

Режиссер: Юрий Музыкант, Наталья Рашевская

В ролях:
Виталий Полицеймако, Нина Ольхина, Ирина Ефремова (IV), Михаил Иванов, Василий Софронов, Сергей Юрский, Вера Романова, Елена Грановская, Валентина Кибардина, Вера Осокина, Ольга Казико, Зинаида Шарко, Евгений Иванов, Николай Семилетов, Николай Корн, Борис Рыжухин, Виктор Чайников, Евгений Лебедев, Георгий Семёнов, Владислав Стржельчик, Ефим Копелян...
Об актёрах подробней

Описание:
По одноименной пьесе М.Горького. Постановка Ленинградского Большого драматического театра им. Горького.
Июль-декабрь 1917 года, в стране происходит революция. Действие фильма разворачивает в купеческом клубе, в доме Достигаева, в доме Булычова. «Столпы общества» встревожены надвигающимися на них грозными событиями.

Источник: DVD5 R5
Качество видео: DVDRip
Формат видео: AVI

Видео: 688x512 (4:3), 25 fps, XviD ~ 2312 kbps avg, 0.262 bit/pixel
Аудио: 48 kHz, Dolby Digital AC3 2.0, 192 kbps

Раздача от:
Общее
Полное имя : Dostigaev.i.drugie.1959.DVDRip_[New-team]_by_AVP_Studio.avi
Формат : AVI
Формат/Информация : Audio Video Interleave
Размер файла : 1,67 Гбайт
Продолжительность : 1 ч. 35 м.
Общий поток : 2513 Кбит/сек
Программа кодирования : VirtualDubMod 1.5.10.3 | www.virtualdub-fr.org || (build 2550/release)
Библиотека кодирования : VirtualDubMod build 2550/release

Видео
Идентификатор : 0
Формат : MPEG-4 Visual
Профиль формата : Advanced Simple@L5
Настройки формата : BVOP1 / Custom Matrix
Параметр BVOP формата : 1
Параметр QPel формата : Нет
Параметр GMC формата : Без точки перехода
Параметр матрицы формата : Выборочная
Идентификатор кодека : XVID
Идентификатор кодека/Подсказка : XviD
Продолжительность : 1 ч. 35 м.
Битрейт : 2312 Кбит/сек
Ширина : 688 пикселей
Высота : 512 пикселей
Соотношение сторон : 4:3
Частота кадров : 25,000 кадров/сек
Цветовое пространство : YUV
Субдискретизация насыщенности : 4:2:0
Битовая глубина : 8 бит
Тип развёртки : Прогрессивная
Метод сжатия : С потерями
Бит/(Пиксели*Кадры) : 0.262
Размер потока : 1,54 Гбайт (92%)
Библиотека кодирования : XviD 73

Аудио
Идентификатор : 1
Формат : AC-3
Формат/Информация : Audio Coding 3
Идентификатор кодека : 2000
Продолжительность : 1 ч. 35 м.
Вид битрейта : Постоянный
Битрейт : 192 Кбит/сек
Каналы : 2 канала
Расположение каналов : Front: L R
Частота : 48,0 КГц
Частота кадров : 31,250 кадров/сек (1536 SPF)
Битовая глубина : 16 бит
Метод сжатия : С потерями
Размер потока : 131 Мбайт (8%)
Выравнивание : Разделение по промежуткам
Продолжительность промежутка : 40 мс. (1,00 видеокадр)
Время предзагрузки промежутка : 500 мс
pb.wtf



Скачать Достигаев и другие через торрент http://i103.fastpic.ru/big/2018/0205/90/b7a8073f0cd60dfb90610cca11c10190.png Скачать, смотреть онлайн Достигаев и другие бесплантно в хорошем качестве Описание:По одноименной пьесе М.Горького. Постановка Ленинградского Большого драматического театра им. Горького.Июль-декабрь 1917 года, в ... 10 10 1
Info! Золотая раздача, скачанное не засчитывается.
Торрент: Зарегистрирован [2018-02-05 08:35] · скачан: 10 раз
Статус: √ проверено
Размер: 1.67 GB
Как cкачать? Как скачать Достигаев и другие через торрент | UTorrent

% Раздел Тема Автор DL S | L
Кино СССР [ 1.09 GB ] Достигаев и другие [1959 СССР DVDRip-AVC от AVP Studio] AVP Studio Скачать
1 | 0

28-11-2019 20:33  

Отключить всю рекламу на сайте

    Дорогой пользователь! Огромная просьба, поблагодарите релизера, оцените раздачу и оставьте свои комментарий, если Вы скачали Достигаев и другие через торрент бесплатно!
    Комментировать посты могут только пользователи прошедшие не сложную регистрацию
    Показать сообщения:    

    Достигаев и другие через торрент
    Скачать бесплатно Достигаев и другие
    Достигаев и другие скачать торрент
    Достигаев и другие смотреть онлайн
    Cкачать фильм Достигаев и другие бесплатно
    Достигаев и другие скачать торрент в хорошем качестве
    Достигаев и другие смотреть онлайн бесплатно в хорошем качестве


    Вы не можете начинать темы
    Вы не можете отвечать на сообщения
    Вы не можете редактировать свои сообщения
    Вы не можете удалять свои сообщения
    Вы не можете голосовать в опросах
    Вы не можете прикреплять файлы к сообщениям
    Вы можете скачивать файлы