Ссылка на приватное зеркало нашего сайта всего за 1$. Внимание количество ограничено!!!

2 сезон

iTunes

1 сезон

1

2 сезон

2 сезон

iTunes

1 сезон

RePack

30

Ultimate

ВАЖНО

ИГРА 18+

pack

RePack

MK11
pack

Забери бонус

RePack

jed

!!Акция!!

Alien_Rage

RePack

fifa19

RePack

Assassins Creed: Odyssey

RePack

NEED FOR SPEED™ PAYBACK

4 сезон

9 сезон

Бесстыжие 9 сезон

Все сериалы

все сериалы на PB.wtf

RePack

FAR CRY 5
  

Beast In Black - Berserker (Japanese Ed.) - 2017/ FLAC/ image +.cue/ lossless/ Melodic Heavy Metal, Power Metal pb.wtf

Beast In Black - Berserker через торрент pb.wtf

Размер: 387 MB | Добавлен: 2 года 9 мес. назад | Торрент скачан:20 раз
Скачать  

05-02-2018 09:51 Beast In Black - Berserker Скачать торрент  


Beast In Black - Berserker


Год издания: 2017
Страна: Finland
Жанр: Melodic Heavy Metal, Power Metal
Продолжительность: 00:51:13
Лейбл издания: Ward Records
Страна-выпуска диска: Japan
Номер по каталогу: GQCS-90468
Формат: FLAC
Битрейт аудио: Lossless
Тип рипа: image +.cue
Наличие сканов в содержимом раздачи: да


01. Beast In Black (4:29)
02. Blind And Frozen (5:05)
03. Blood Of A Lion (5:04)
04. Born Again (3:51)
05. Zodd The Immortal (3:35)
06. The Fifth Angel (3:30)
07. Crazy, Mad, Insane (3:30)
08. Hell For All Eternity (bonus) (4:48)
09. Eternal Fire (3:34)
10. Go To Hell (bonus) (3:02)
11. End Of The World (5:10)
12. Ghost In The Rain (5:35)

Код:

Exact Audio Copy V1.1 from 23. June 2015

EAC extraction logfile from 16. November 2017, 7:05

Beast In Black / Berserker (GQCS-90468)

Used drive  : TSSTcorpDVDWBD SH-B123L   Adapter: 0  ID: 4

Read mode               : Secure
Utilize accurate stream : Yes
Defeat audio cache      : Yes
Make use of C2 pointers : No

Read offset correction                      : 6
Overread into Lead-In and Lead-Out          : No
Fill up missing offset samples with silence : Yes
Delete leading and trailing silent blocks   : No
Null samples used in CRC calculations       : Yes
Used interface                              : Installed external ASPI interface

Used output format              : User Defined Encoder
Selected bitrate                : 768 kBit/s
Quality                         : High
Add ID3 tag                     : No
Command line compressor         : C:\Program Files (x86)\Exact Audio Copy\FLAC\FLAC.EXE
Additional command line options : -6 -V -T "ARTIST=%artist%" -T "TITLE=%title%" -T "ALBUM=%albumtitle%" -T "DATE=%year%" -T "TRACKNUMBER=%tracknr%" -T "GENRE=%genre%" -T "COMMENT=%comment%" -T "BAND=%albuminterpret%" -T "ALBUMARTIST=%albuminterpret%" -T "COMPOSER=%composer%" %haslyrics%--tag-from-file=LYRICS="%lyricsfile%"%haslyrics% -T "DISCNUMBER=%cdnumber%" -T "TOTALDISCS=%totalcds%" -T "TOTALTRACKS=%numtracks%" %hascover%--picture="%coverfile%"%hascover% %source% -o %dest%

TOC of the extracted CD

     Track |   Start  |  Length  | Start sector | End sector
    ---------------------------------------------------------
        1  |  0:00.00 |  4:29.28 |         0    |    20202
        2  |  4:29.28 |  5:04.46 |     20203    |    43048
        3  |  9:33.74 |  5:03.38 |     43049    |    65811
        4  | 14:37.37 |  3:51.10 |     65812    |    83146
        5  | 18:28.47 |  3:34.64 |     83147    |    99260
        6  | 22:03.36 |  3:30.27 |     99261    |   115037
        7  | 25:33.63 |  3:30.05 |    115038    |   130792
        8  | 29:03.68 |  4:48.27 |    130793    |   152419
        9  | 33:52.20 |  3:34.05 |    152420    |   168474
       10  | 37:26.25 |  3:01.45 |    168475    |   182094
       11  | 40:27.70 |  5:10.21 |    182095    |   205365
       12  | 45:38.16 |  5:35.09 |    205366    |   230499

Range status and errors

Selected range

     Filename E:\MUSIC\Beast In Black - Berserker (GQCS-90468).wav

     Peak level 99.4 %
     Extraction speed 3.4 X
     Range quality 99.9 %
     Test CRC AA3A8419
     Copy CRC AA3A8419
     Copy OK

No errors occurred

AccurateRip summary

Track  1  not present in database
Track  2  not present in database
Track  3  not present in database
Track  4  not present in database
Track  5  not present in database
Track  6  not present in database
Track  7  not present in database
Track  8  not present in database
Track  9  not present in database
Track 10  not present in database
Track 11  not present in database
Track 12  not present in database

None of the tracks are present in the AccurateRip database

End of status report

Код:

REM GENRE "Heavy Metal, Power Metal"
REM DATE 2017
REM DISCID 990C010C
REM COMMENT "ExactAudioCopy v1.1"
PERFORMER "Beast In Black"
TITLE "Berserker (GQCS-90468)"
FILE "Beast In Black - Berserker (GQCS-90468).flac" WAVE
  TRACK 01 AUDIO
    TITLE "Beast In Black"
    PERFORMER "Beast In Black"
    INDEX 01 00:00:00
  TRACK 02 AUDIO
    TITLE "Blind And Frozen"
    PERFORMER "Beast In Black"
    INDEX 01 04:29:28
  TRACK 03 AUDIO
    TITLE "Blood Of A Lion"
    PERFORMER "Beast In Black"
    INDEX 00 09:32:03
    INDEX 01 09:33:74
  TRACK 04 AUDIO
    TITLE "Born Again"
    PERFORMER "Beast In Black"
    INDEX 01 14:37:37
  TRACK 05 AUDIO
    TITLE "Zodd The Immortal"
    PERFORMER "Beast In Black"
    INDEX 01 18:28:47
  TRACK 06 AUDIO
    TITLE "The Fifth Angel"
    PERFORMER "Beast In Black"
    INDEX 00 22:02:05
    INDEX 01 22:03:36
  TRACK 07 AUDIO
    TITLE "Crazy, Mad, Insane"
    PERFORMER "Beast In Black"
    INDEX 01 25:33:63
  TRACK 08 AUDIO
    TITLE "Hell For All Eternity (bonus)"
    PERFORMER "Beast In Black"
    INDEX 00 29:01:32
    INDEX 01 29:03:68
  TRACK 09 AUDIO
    TITLE "Eternal Fire"
    PERFORMER "Beast In Black"
    INDEX 00 33:49:57
    INDEX 01 33:52:20
  TRACK 10 AUDIO
    TITLE "Go To Hell (bonus)"
    PERFORMER "Beast In Black"
    INDEX 00 37:24:15
    INDEX 01 37:26:25
  TRACK 11 AUDIO
    TITLE "End Of The World"
    PERFORMER "Beast In Black"
    INDEX 00 40:26:38
    INDEX 01 40:27:70
  TRACK 12 AUDIO
    TITLE "Ghost In The Rain"
    PERFORMER "Beast In Black"
    INDEX 00 45:36:02
    INDEX 01 45:38:16




pb.wtf



Скачать Beast In Black - Berserker через торрент http://i99.fastpic.ru/big/2018/0205/b2/64359b997bdd2e89fa8802e76b24f5b2.png Скачать фильм Beast In Black - Berserker через торрент бесплантно в хорошем качестве Трэклист Beast In Black (4:29) Blind And Frozen (5:05) Blood Of A Lion (5:04) Born Again (3:51) Zodd The ... 10 10 1
Торрент: Зарегистрирован [2018-02-05 09:51] · скачан: 20 раз
Статус: √ проверено
Размер: 387 MB
Как cкачать? Как скачать Beast In Black - Berserker через торрент | qTorrent

28-11-2019 20:33  

Отключить всю рекламу на сайте

05-02-2018 10:24 Beast In Black - Berserker Скачать торрент  

группа супер,спасибо за релиз,это новые найтвиш если что,просто послушайте,даже не верится что один человек поет,кстати гитарист основатель этой группы раньше был в группе battle beasts,отсюда в названии и появилось слово beast,а вокалист был каверщиком на ютубе,короче всем кто любит найтов так же сильно как я обязательно к прослушиваниюpb.wtf



    Дорогой пользователь! Огромная просьба, поблагодарите релизера, оцените раздачу и оставьте свои комментарий, если Вы скачали Beast In Black - Berserker через торрент бесплатно! Внесите свою лепту в развитие PiratBit!
    Комментировать посты могут только пользователи прошедшие не сложную регистрацию
    Показать сообщения:    

    Beast In Black - Berserker через торрент
    Скачать бесплатно Beast In Black - Berserker
    Beast In Black - Berserker скачать торрент
    Beast In Black - Berserker смотреть онлайн
    Cкачать фильм Beast In Black - Berserker бесплатно
    Beast In Black - Berserker скачать торрент в хорошем качестве
    Beast In Black - Berserker смотреть онлайн бесплатно в хорошем качестве


    Вы не можете начинать темы
    Вы не можете отвечать на сообщения
    Вы не можете редактировать свои сообщения
    Вы не можете удалять свои сообщения
    Вы не можете голосовать в опросах
    Вы не можете прикреплять файлы к сообщениям
    Вы можете скачивать файлы