Ссылка на приватное зеркало нашего сайта всего за 1$. Внимание количество ограничено!!!

2 сезон

iTunes

1 сезон

1

2 сезон

2 сезон

iTunes

1 сезон

RePack

30

Новинка

ВАЖНО

ИГРА 18+

pack

RePack

MK11
pack

Забери бонус

RePack

jed

!!Акция!!

Alien_Rage

RePack

fifa19

RePack

Assassins Creed: Odyssey

RePack

NEED FOR SPEED™ PAYBACK

4 сезон

9 сезон

Бесстыжие 9 сезон

Все сериалы

все сериалы на PB.wtf

RePack

FAR CRY 5
  

Видоизмененный углерод / Altered Carbon / Сезон: 1 / Серия: 1-10 из 10 (Ута Бризвитц, Питер Хор, Ник Харран) [2018, фантастика, WEBRip 2160p] [MVO] (AlexFilm) pb.wtf

Видоизмененный углерод через торрент pb.wtf

Размер: 147.61 GB | Добавлен: 2 года 9 мес. назад | Торрент скачан:17 раз
Скачать  

05-02-2018 11:02 Видоизмененный углерод Скачать торрент  

Видоизмененный углеродAltered Carbon

Год выпуска: 2017
Страна: США
Жанр: фантастика
Продолжительность: ~01:00:00
Перевод: Профессиональный (многоголосый закадровый) [AlexFilm]
Субтитры: Русские, английские

Режиссёр: Ута Бризвитц, Питер Хор, Ник Харран

В ролях: Антонио Марциале, Крис Коннер, Хиро Канагава, Кристин Леман, Алика Аутран, Тич Грант, Юэль Киннаман, Хэйли Лоу, Заф Пару, Джеймс Пьюрфой

Описание: Земля, XXVII век. Мир, в котором появилась возможность «сгружать» человеческое сознание и личность из одного тела в другое. Идеальный мир и для преступников, и для полицейских, и для армии, но вряд ли идеальный для бывшего военного спецназовца Такеси Ковача, которого миллиардер Бэнкрофт нанял для расследования гибели одного из своих тел. Внешне — явное самоубийство. В действительности — явное убийство. Вот только воспоминания об убийце уничтожены вместе с телом-клоном.

Перевод: Мисс Джэксон, Алиса Голланова, Александр Лазарев
Монтаж и сведение звука: Михаил Шорыгин
Роли озвучивали:
Маргарита Корш
Екатерина Муравицкая
Кирилл Патрино
Константин Федосеев
Алексей Никитин
Михаил Суслов




Качество: WEBRip (2160p)
Формат: MKV
Видео: MPEG-4 AVC, ~ 39200 Кбит/с, 3840x1920
Аудио: AC3, 48 kHz, 6 ch, 448 kbps [AlexFilm]
Аудио: E-AC3, 48 kHz, 6 ch, 448 kbps [Eng]
Общее
Уникальный идентификатор : 232953975622923682453290403699564647803 (0xAF414DC15B11169F88D2944D7F36957B)
Полное имя : Altered.Carbon.S01E01.2160p.AlexFilm.mkv
Формат : Matroska
Версия формата : Version 4 / Version 2
Размер файла : 16,5 Гбайт
Продолжительность : 58 м. 53 с.
Общий поток : 40,1 Мбит/сек
Дата кодирования : UTC 2018-02-05 00:18:55
Программа кодирования : mkvmerge v8.3.0 ('Over the Horizon') 64bit
Библиотека кодирования : libebml v1.3.1 + libmatroska v1.4.2

Видео
Идентификатор : 1
Формат : AVC
Формат/Информация : Advanced Video Codec
Профиль формата : High@L5.1
Настройки формата : CABAC / 6 Ref Frames
Параметр CABAC формата : Да
Параметр RefFrames формата : 6 кадров
Идентификатор кодека : V_MPEG4/ISO/AVC
Продолжительность : 58 м. 53 с.
Битрейт : 39,2 Мбит/сек
Ширина : 3840 пикселей
Высота : 1920 пикселей
Соотношение сторон : 2,000
Режим частоты кадров : Постоянный
Частота кадров : 23,976 (24000/1001) кадра/сек
Цветовое пространство : YUV
Субдискретизация насыщенности : 4:2:0
Битовая глубина : 8 бит
Тип развёртки : Прогрессивная
Бит/(Пиксели*Кадры) : 0.222
Размер потока : 16,1 Гбайт (98%)
Библиотека кодирования : x264 core 152 r2851kMod ba24899
Настройки программы : cabac=1 / ref=6 / deblock=1:-3:-3 / analyse=0x3:0x133 / me=umh / subme=10 / psy=1 / fade_compensate=0.00 / psy_rd=1.00:0.00 / mixed_ref=1 / me_range=48 / chroma_me=1 / trellis=2 / 8x8dct=1 / cqm=0 / deadzone=21,11 / fast_pskip=0 / chroma_qp_offset=-2 / threads=48 / lookahead_threads=8 / sliced_threads=0 / nr=0 / decimate=0 / interlaced=0 / bluray_compat=0 / constrained_intra=0 / bframes=8 / b_pyramid=2 / b_adapt=2 / b_bias=0 / direct=3 / weightb=1 / open_gop=0 / weightp=2 / keyint=250 / keyint_min=23 / scenecut=40 / intra_refresh=0 / rc=crf / mbtree=0 / crf=18.0000 / qcomp=0.60 / qpmin=0 / qpmax=69 / qpstep=4 / ip_ratio=1.30 / pb_ratio=1.20 / aq=3:0.80
Язык : English
Default : Да
Forced : Нет

Аудио #1
Идентификатор : 2
Формат : AC-3
Формат/Информация : Audio Coding 3
Идентификатор кодека : A_AC3
Продолжительность : 58 м. 2 с.
Вид битрейта : Постоянный
Битрейт : 448 Кбит/сек
Каналы : 6 каналов
Расположение каналов : Front: L C R, Side: L R, LFE
Частота : 48,0 КГц
Частота кадров : 31,250 кадров/сек (1536 SPF)
Битовая глубина : 16 бит
Метод сжатия : С потерями
Размер потока : 186 Мбайт (1%)
Заголовок : AlexFilm
Язык : Russian
ServiceKind/String : Complete Main
Default : Да
Forced : Нет

Аудио #2
Идентификатор : 3
Формат : E-AC-3
Формат/Информация : Enhanced Audio Coding 3
Профиль формата : E-AC-3+Atmos / E-AC-3
Идентификатор кодека : A_EAC3
Продолжительность : 58 м. 2 с.
Вид битрейта : Постоянный
Битрейт : 448 Кбит/сек
Каналы : 15 objects / 6 каналов
Расположение каналов : 15 objects / Front: L C R, Side: L R, LFE
Частота : 48,0 КГц
Частота кадров : 187,500 кадров/сек (256 SPF)
Метод сжатия : С потерями
Размер потока : 186 Мбайт (1%)
Язык : English
ServiceKind/String : Complete Main
Default : Нет
Forced : Нет

Текст #1
Идентификатор : 4
Формат : UTF-8
Идентификатор кодека : S_TEXT/UTF8
Идентификатор кодека/Информация : UTF-8 Plain Text
Продолжительность : 53 м. 37 с.
Битрейт : 111 бит/сек
ElementCount : 706
Размер потока : 43,7 Кбайт (0%)
Заголовок : PhysKids
Язык : Russian
Default : Нет
Forced : Нет

Текст #2
Идентификатор : 5
Формат : UTF-8
Идентификатор кодека : S_TEXT/UTF8
Идентификатор кодека/Информация : UTF-8 Plain Text
Продолжительность : 54 м. 57 с.
Битрейт : 66 бит/сек
ElementCount : 723
Размер потока : 26,7 Кбайт (0%)
Язык : English
Default : Нет
Forced : Нет

Текст #3
Идентификатор : 6
Формат : UTF-8
Идентификатор кодека : S_TEXT/UTF8
Идентификатор кодека/Информация : UTF-8 Plain Text
Продолжительность : 57 м. 24 с.
Битрейт : 72 бит/сек
ElementCount : 828
Размер потока : 30,6 Кбайт (0%)
Заголовок : SDH
Язык : English
Default : Нет
Forced : Нет
скриншот  скриншот  скриншот  
Внимание! Раздача ведётся путём добавления новых серий; при каждом добавлении создаётся новый торрент. Чтобы начать докачку новой серии, пользователям необходимо сделать следующее:
(1) остановить скачивание,
(2) удалить старый торрент у себя из клиента (старые серии удалять не надо),
(3) скачать новый торрент и запустить его у себя в клиенте вместо старого, при этом указать клиенту путь в старую папку куда и должно происходить скачивание новых серий.
Ваш клиент при этом должен произвести хеширование (проверку) старой папки (если не производит сам - помогите ему сделать это), и будет докачивать только те серии которых у вас ещё нет. Старые серии при этом не удаляются, а продолжают раздаваться!
Eсли вы уже удалили старые серии, то предотвратить повторную закачку старых серий можно, отжав галочку в соответствующих местах при запуске нового торрента. По возможности, желательно не удалять старые серии как можно дольше чтобы релизёр не столько продолжал раздавать старые серии, а смог сконцентрироваться на новых.
pb.wtf



Скачать Видоизмененный углерод через торрент http://i103.fastpic.ru/big/2018/0202/f0/91bcb7014bedbeb1236d46ec73a99bf0.jpg Скачать фильм Видоизмененный углерод через торрент бесплантно в хорошем качестве Описание: Земля, XXVII век. Мир, в котором появилась возможность «сгружать» человеческое сознание и личность из одного тела в другое. ... 8.5 10 6
Торрент: Зарегистрирован [2018-02-19 12:49] · скачан: 17 раз
Статус: √ проверено
Размер: 147.61 GB
Как cкачать? Как скачать Видоизмененный углерод через торрент | qTorrent

% Раздел Тема Автор DL S | L
Зарубежные сериалы [ 39.97 GB ] Видоизменённый углерод / Altered Carbon / Сезон: 2 / Серии: 1-8 из 8 [2020 WEBRip 1080p] 2xMVO [NewStudio LostFilm] bober100 Скачать
3 | 0
Зарубежные сериалы [ 14.08 GB ] Видоизменённый углерод / Altered Carbon / Сезон: 2 / Серии: 1-8 из 8 [2020 WEBRip 1080p] MVO [Jaskier] bober100 Скачать
4 | 0
Зарубежные сериалы [ 14.24 GB ] Видоизмененный углерод / Altered Carbon / Сезон: 2 / Серия: 1-8 из 8 [2020 WEB-DL 1080p] [MVO] killermax2013 Скачать
2 | 0
Зарубежные сериалы [ 15.15 GB ] Видоизменённый углерод / Altered Carbon / Сезон: 2 / Серии: 1-8 из 8 [2020 WEB-DL 1080p] MVO [LostFilm] bober100 Скачать
1 | 0
Зарубежные сериалы [ 35.72 GB ] Видоизменённый углерод / Altered Carbon / Сезон: 2 / Серии: 1-8 из 8 [2020 WEBRip 1080p] DVO [Gears Media] bober100 Скачать
1 | 0
Фильмы без перевода [ 14.09 GB ] Видоизмененный углерод / Altered Carbon / Сезон: 2 / Серия: 1-8 из 8 [2020 WEBRip 1080p] [Multi Subs] killermax2013 Скачать
1 | 0
Зарубежные сериалы [ 17.34 GB ] Видоизмененный углерод / Altered Carbon / Сезон: 1 / Серия: 1-10 из 10 [2018 WEBRip 1080p] [MVO] killermax2013 Скачать
1 | 1


Последний раз редактировалось: killermax2013 (2018-02-19 12:49), всего редактировалось 2 раз(а)

28-11-2019 20:33  

Отключить всю рекламу на сайте

16-02-2018 16:51 Видоизмененный углерод Скачать торрент  

ВВП76 писал(а):

Добавьте ,пожалуйста, озвучку Lost .Матершина затрахала

Лост озвучил только 4 серии, вот держите Видоизмененный углерод / Altered Carbon / Сезон: 1 / Серия: 1-10 из 10 pb.wtf



20-02-2018 10:42 Видоизмененный углерод Скачать торрент  

без мата сериал многое теряет . и стесняюсь спросить на чем вы будете смотреть многопудовое видео? для моего гнутого самсунга в 55 дьюмов хватило 11 гигов ( в фул НД ) .... видны все волосики и складочки на ореольчиках )pb.wtf



    Дорогой пользователь! Огромная просьба, поблагодарите релизера, оцените раздачу и оставьте свои комментарий, если Вы скачали Видоизмененный углерод через торрент бесплатно! Внесите свою лепту в развитие PiratBit!
    Комментировать посты могут только пользователи прошедшие не сложную регистрацию
    Показать сообщения:    

    Видоизмененный углерод через торрент
    Скачать бесплатно Видоизмененный углерод
    Видоизмененный углерод скачать торрент
    Видоизмененный углерод смотреть онлайн
    Cкачать фильм Видоизмененный углерод бесплатно
    Видоизмененный углерод скачать торрент в хорошем качестве
    Видоизмененный углерод смотреть онлайн бесплатно в хорошем качестве


    Вы не можете начинать темы
    Вы не можете отвечать на сообщения
    Вы не можете редактировать свои сообщения
    Вы не можете удалять свои сообщения
    Вы не можете голосовать в опросах
    Вы не можете прикреплять файлы к сообщениям
    Вы можете скачивать файлы