Ссылка на приватное зеркало нашего сайта всего за 1$. Внимание количество ограничено!!!

2 сезон

iTunes

1 сезон

1

2 сезон

2 сезон

iTunes

1 сезон

RePack

30

Ultimate

ВАЖНО

ИГРА 18+

pack

RePack

MK11
pack

Забери бонус

RePack

jed

!!Акция!!

Alien_Rage

RePack

fifa19

RePack

Assassins Creed: Odyssey

RePack

NEED FOR SPEED™ PAYBACK

4 сезон

9 сезон

Бесстыжие 9 сезон

Все сериалы

все сериалы на PB.wtf

RePack

FAR CRY 5
  

Кроуфорд / Crawford / Сезон 1 / Серии 1-12 из 12 (Майк Клаттенбург, Майк О'Нил) [2018, комедия, WEBRip] MVO [ColdFilm] pb.wtf

Кроуфорд через торрент pb.wtf

Размер: 2.26 GB | Добавлен: 2 года 9 мес. назад | Торрент скачан:23 раза
Скачать  

06-02-2018 09:57 Кроуфорд Скачать торрент  

Кроуфорд / CrawfordГод выпуска: 2018
Страна: Канада
Жанр: комедия
Продолжительность: 12 x ~ 00:22:00
Перевод: Любительский (многоголосый) - скриншот  
Субтитры: отсутствуют

Режиссер: Майк Клаттенбург, Майк О'Нил

rating

В ролях:

Джилл Хеннесси, Алиса Моран, Джон Кэрролл Линч

Описание:

Сериал про молодого человека, который, после серии неудач, возвращается в родительский дом и устраивает бизнес на основе своей природной способности понимать енотов, в то же время пытаясь ужиться со своей эксцентричной семьей.

Качество: WEBRip
Формат: AVI
Видео кодек: XviD
Аудио кодек: MP3

Видео: 1100 Кбит/с, 720x400, 29.970 fps
Аудио: Русский (MP3, 2 ch, 192 Кбит/с)
скриншот  скриншот  скриншот  скриншот  

Общее
Полное имя : D:\Crawford.S01.400p.ColdFilm\Crawford.S01E01.400p.ColdFilm.avi
Формат : AVI
Формат/Информация : Audio Video Interleave
Размер файла : 194 Мбайт
Продолжительность : 22 м. 4 с.
Общий поток : 1226 Кбит/сек
Программа кодирования : Lavf57.40.101

Видео
Идентификатор : 1
Формат : MPEG-4 Visual
Параметр BVOP формата : Нет
Параметр QPel формата : Нет
Параметр GMC формата : Без точки перехода
Параметр матрицы формата : Default (H.263)
Идентификатор кодека : FMP4
Продолжительность : 22 м. 4 с.
Битрейт : 1003 Кбит/сек
Ширина : 720 пикселей
Высота : 400 пикселей
Соотношение сторон : 16:9
Режим частоты кадров : Переменный
Частота кадров : 119,880 (24/30) кадров/сек
Минимальная частота кадров : 23,976 кадра/сек
Максимальная частота кадров : 29,970 кадров/сек
Цветовое пространство : YUV
Субдискретизация насыщенности : 4:2:0
Битовая глубина : 8 бит
Тип развёртки : Прогрессивная
Метод сжатия : С потерями
Бит/(Пиксели*Кадры) : 0.029
Размер потока : 158 Мбайт (82%)
Библиотека кодирования : Lavc57.48.101

Аудио
Идентификатор : 0
Формат : MPEG Audio
Версия формата : Version 1
Профиль формата : Layer 3
Режим : Joint stereo
Расширение режима : MS Stereo
Идентификатор кодека : 55
Идентификатор кодека/Подсказка : MP3
Продолжительность : 22 м. 4 с.
Вид битрейта : Постоянный
Битрейт : 192 Кбит/сек
Каналы : 2 канала
Частота : 48,0 КГц
Метод сжатия : С потерями
Размер потока : 30,3 Мбайт (16%)
Выравнивание : Соединение по промежуткам
Продолжительность промежутка : 8 мс. (1,00 видеокадр)

pb.wtf



Скачать Кроуфорд через торрент http://a.radikal.ru/a43/1802/db/6d3f95969654.jpg Скачать фильм Кроуфорд через торрент бесплантно в хорошем качестве Описание: Сериал про молодого человека, который, после серии неудач, возвращается в родительский дом и устраивает бизнес на основе своей ... 10 10 3
Торрент: Зарегистрирован [2018-02-06 09:57] · скачан: 23 раз
Статус: √ проверено
Размер: 2.26 GB
Как cкачать? Как скачать Кроуфорд через торрент | qTorrent

28-11-2019 20:33  

Отключить всю рекламу на сайте

07-02-2018 04:41 Кроуфорд Скачать торрент  

проверьте плз свой релиз, начиная с 5 серии перепутаны где какая фиг поймешь, удаляю покаpb.wtf



    Дорогой пользователь! Огромная просьба, поблагодарите релизера, оцените раздачу и оставьте свои комментарий, если Вы скачали Кроуфорд через торрент бесплатно! Внесите свою лепту в развитие PiratBit!
    Комментировать посты могут только пользователи прошедшие не сложную регистрацию
    Показать сообщения:    

    Кроуфорд через торрент
    Скачать бесплатно Кроуфорд
    Кроуфорд скачать торрент
    Кроуфорд смотреть онлайн
    Cкачать фильм Кроуфорд бесплатно
    Кроуфорд скачать торрент в хорошем качестве
    Кроуфорд смотреть онлайн бесплатно в хорошем качестве


    Вы не можете начинать темы
    Вы не можете отвечать на сообщения
    Вы не можете редактировать свои сообщения
    Вы не можете удалять свои сообщения
    Вы не можете голосовать в опросах
    Вы не можете прикреплять файлы к сообщениям
    Вы можете скачивать файлы